Tags
Language
Tags

Suburra: la serie S01 (2017)

Posted By: JohnSmith
Suburra: la serie S01 (2017)

Suburra: la serie S01 (2017)
WEB-DL 720p | MKV / AVC@~2200 kb/s | 1280x720 | 10x~60mn | 10x~1 GB
Italian: AC3, 384 kb/s (6 ch) | Subtitles: Italian, English
Genre: Action | Crime

Basata sull'acclamato romanzo di Giancarlo De Cataldo e Carlo Bonini, la serie è ambientata qualche anno prima dello scandalo politico realmente accaduto a Roma al quale si ispira. Gli interessi di Chiesa, politica, criminalità organizzata, bande locali e imprenditori edili si intrecciano in un groviglio di azioni tra il lecito e l'illecito dando luogo a un thriller poliziesco in cui l'unica cosa che conta davvero è il potere.




General
Unique ID : 248690091485129776737500072277482087833 (0xBB17F82B03EA2403856799F0623B2599)
Complete name : A:\Suburra.S01E01.21.Giorni.DLMUX.720p.AC3.ITA.SUBS.mkv
Format : Matroska
Format version : Version 4 / Version 2
File size : 1.17 GiB
Duration : 1 h 2 min
Overall bit rate mode : Variable
Overall bit rate : 2 665 kb/s
Encoded date : UTC 2017-10-06 19:23:12
Writing application : mkvmerge v6.7.0 ('Back to the Ground') 64bit built on Jan 8 2014 15:10:52
Writing library : libebml v1.3.0 + libmatroska v1.4.1

Video
ID : 1
Format : AVC
Format/Info : Advanced Video Codec
Format profile : Main@L3.1
Format settings, CABAC : Yes
Format settings, ReFrames : 3 frames
Codec ID : V_MPEG4/ISO/AVC
Duration : 1 h 2 min
Bit rate mode : Variable
Bit rate : 2 228 kb/s
Nominal bit rate : 2 370 kb/s
Maximum bit rate : 3 555 kb/s
Width : 1 280 pixels
Height : 720 pixels
Display aspect ratio : 16:9
Frame rate mode : Constant
Frame rate : 25.000 FPS
Color space : YUV
Chroma subsampling : 4:2:0
Bit depth : 8 bits
Scan type : Progressive
Bits/(Pixel*Frame) : 0.097
Stream size : 999 MiB (84%)
Writing library : x264 core 118
Encoding settings : cabac=1 / ref=3 / deblock=1:0:0 / analyse=0x1:0x111 / me=umh / subme=10 / psy=1 / psy_rd=1.00:0.00 / mixed_ref=1 / me_range=24 / chroma_me=1 / trellis=2 / 8x8dct=0 / cqm=0 / deadzone=21,11 / fast_pskip=1 / chroma_qp_offset=-2 / threads=8 / sliced_threads=0 / nr=0 / decimate=1 / interlaced=0 / bluray_compat=0 / constrained_intra=0 / bframes=2 / b_pyramid=0 / b_adapt=2 / b_bias=0 / direct=3 / weightb=1 / open_gop=0 / weightp=2 / keyint=50 / keyint_min=26 / scenecut=0 / intra_refresh=0 / rc_lookahead=0 / rc=2pass / mbtree=1 / bitrate=2370 / ratetol=1.0 / qcomp=0.50 / qpmin=6 / qpmax=51 / qpstep=4 / cplxblur=20.0 / qblur=0.5 / vbv_maxrate=3555 / vbv_bufsize=4740 / nal_hrd=vbr / ip_ratio=1.40 / aq=1:1.00
Default : Yes
Forced : No
Statistics Tags Issue : mkvmerge v7.3.0 ('Nouages') 64bit built on Oct 23 2014 13:14:01 2017-10-06 07:12:26 / mkvmerge v6.7.0 ('Back to the Ground') 64bit built on Jan 8 2014 15:10:52 2017-10-06 19:23:12
FromStats_BitRate : 2279100
FromStats_Duration : 01:02:40.280000000
FromStats_FrameCount : 94007
FromStats_StreamSize : 1071257048

Audio
ID : 2
Format : AC-3
Format/Info : Audio Coding 3
Format settings, Endianness : Big
Codec ID : A_AC3
Duration : 1 h 2 min
Bit rate mode : Constant
Bit rate : 384 kb/s
Channel(s) : 6 channels
Channel positions : Front: L C R, Side: L R, LFE
Sampling rate : 48.0 kHz
Frame rate : 31.250 FPS (1536 spf)
Bit depth : 16 bits
Compression mode : Lossy
Stream size : 172 MiB (14%)
Title : AC3 5.1 @ 384 kbits/s
Language : Italian
Service kind : Complete Main
Default : Yes
Forced : No
Statistics Tags Issue : mkvmerge v7.3.0 ('Nouages') 64bit built on Oct 23 2014 13:14:01 2017-10-06 07:12:26 / mkvmerge v6.7.0 ('Back to the Ground') 64bit built on Jan 8 2014 15:10:52 2017-10-06 19:23:12
FromStats_BitRate : 384000
FromStats_Duration : 01:02:40.544000000
FromStats_FrameCount : 117517
FromStats_StreamSize : 180506112

Text #1
ID : 3
Format : UTF-8
Codec ID : S_TEXT/UTF8
Codec ID/Info : UTF-8 Plain Text
Title : Sottotitoli Italiani Forzati
Language : Italian
Default : Yes
Forced : No

Text #2
ID : 4
Format : UTF-8
Codec ID : S_TEXT/UTF8
Codec ID/Info : UTF-8 Plain Text
Title : Sottotitoli Italiani
Language : Italian
Default : No
Forced : No
Statistics Tags Issue : mkvmerge v7.3.0 ('Nouages') 64bit built on Oct 23 2014 13:14:01 2017-10-06 07:12:26 / mkvmerge v6.7.0 ('Back to the Ground') 64bit built on Jan 8 2014 15:10:52 2017-10-06 19:23:12
FromStats_BitRate : 57
FromStats_Duration : 00:58:38.280000000
FromStats_FrameCount : 727
FromStats_StreamSize : 25462

Text #3
ID : 5
Format : UTF-8
Codec ID : S_TEXT/UTF8
Codec ID/Info : UTF-8 Plain Text
Title : Sottotitoli Inglesi
Language : English
Default : No
Forced : No
Statistics Tags Issue : mkvmerge v7.3.0 ('Nouages') 64bit built on Oct 23 2014 13:14:01 2017-10-06 07:12:26 / mkvmerge v6.7.0 ('Back to the Ground') 64bit built on Jan 8 2014 15:10:52 2017-10-06 19:23:12
FromStats_BitRate : 46
FromStats_Duration : 00:58:38.280000000
FromStats_FrameCount : 602
FromStats_StreamSize : 20361




Screenshots

Suburra: la serie S01 (2017)

Suburra: la serie S01 (2017)

Suburra: la serie S01 (2017)