Film as a Subversive Art: Amos Vogel and Cinema 16 (2003)

Posted By: vivid23
Film as a Subversive Art: Amos Vogel and Cinema 16 (2003)

Film as a Subversive Art: Amos Vogel and Cinema 16 (2003)
DVDrip | 716x480 | MKV/x264 @ 1695 Kbps | 54mn | Audio: English AC3 265 kbps, 2 channels | Subs: None | 775 MB
Genre: Documentary

An hour-long filmed profile of Amos Vogel, 82-year old New York resident and Austrian emigre, founder of the New York Film Festival and America's most important film society, Cinema 16.

More info

Video
ID : 1
Format : AVC
Format/Info : Advanced Video Codec
Format profile : High@L3.1
Format settings, CABAC : Yes
Format settings, ReFrames : 9 frames
Codec ID : V_MPEG4/ISO/AVC
Duration : 54mn 26s
Bit rate : 1 695 Kbps
Width : 716 pixels
Height : 480 pixels
Display aspect ratio : 4:3
Original display aspect ratio : 4:3
Frame rate : 23.976 fps
Color space : YUV
Chroma subsampling : 4:2:0
Bit depth : 8 bits
Scan type : Progressive
Bits/(Pixel*Frame) : 0.206
Stream size : 660 MiB (85%)
Writing library : x264 core 120
Encoding settings : cabac=1 / ref=9 / deblock=1:-2:-2 / analyse=0x3:0x133 / me=umh / subme=9 / psy=1 / psy_rd=1.00:0.00 / mixed_ref=1 / me_range=24 / chroma_me=1 / trellis=2 / 8x8dct=1 / cqm=0 / deadzone=21,11 / fast_pskip=0 / chroma_qp_offset=-2 / threads=6 / sliced_threads=0 / nr=0 / decimate=1 / interlaced=0 / bluray_compat=0 / constrained_intra=0 / bframes=6 / b_pyramid=2 / b_adapt=2 / b_bias=0 / direct=3 / weightb=1 / open_gop=0 / weightp=2 / keyint=240 / keyint_min=24 / scenecut=40 / intra_refresh=0 / rc_lookahead=50 / rc=crf / mbtree=1 / crf=18.5 / qcomp=0.60 / qpmin=3 / qpmax=69 / qpstep=4 / ip_ratio=1.40 / aq=1:1.20
Language : English
Color primaries : BT.601-6 525, BT.1358 525, BT.1700 NTSC, SMPTE 170M
Transfer characteristics : BT.709-5, BT.1361
Matrix coefficients : BT.601-6 525, BT.1358 525, BT.1700 NTSC, SMPTE 170M

Audio
ID : 2
Format : AC-3
Format/Info : Audio Coding 3
Mode extension : CM (complete main)
Codec ID : A_AC3
Duration : 54mn 26s
Bit rate mode : Constant
Bit rate : 256 Kbps
Channel(s) : 2 channels
Channel positions : Front: L R
Sampling rate : 48.0 KHz
Bit depth : 16 bits
Compression mode : Lossy
Stream size : 99.7 MiB (13%)

Menu
00:00:00.000 : Chapter 1
00:05:00.883 : Chapter 2
00:10:01.684 : Chapter 3
00:15:02.484 : Chapter 4
00:20:03.327 : Chapter 5
00:25:04.085 : Chapter 6
00:30:04.886 : Chapter 7
00:35:05.728 : Chapter 8
00:40:06.529 : Chapter 9
00:45:07.329 : Chapter 10
00:50:08.130 : Chapter 11


Film as a Subversive Art: Amos Vogel and Cinema 16 (2003)

Film as a Subversive Art: Amos Vogel and Cinema 16 (2003)


Feel free to contact me when links are dead