Sweet Virginia (2017)

Posted By: Without
1080p (FullHD) / BDRip IMDb
Sweet Virginia (2017)

Sweet Virginia (2017)
BDRip | MKV | 720x300 | AVC@337 kb/s | English AAC@109 kb/s
2 channels | 1 h 33 min | 298 MB
BRRip | AVI | 720x304 | XviD@1519 kb/s | English AC3@448 kb/s
6 channels | 1 h 33 min | 1.29 GB
BDRip 720p | MKV | 1280x536 | AVC@5193 kb/s | English DTS@1509 kb/s
6 channels | 1 h 33 min | 4.37 GB
BDRip 1080p | MKV | 1920x800 | AVC@8552 kb/s | English DTS@1509 kb/s
6 channels | 1 h 33 min | 6.55 GB
Genre: Drama, Thriller

A former rodeo champ befriends a young man with a propensity for violence.



General
sweet.virginia.2017.limited.bdrip.x264-veto.mkv
Format : Matroska
Format version : Version 4 / Version 2
File size : 298 MiB
Duration : 1 h 33 min
Overall bit rate : 447 kb/s
Encoded date : UTC 2018-01-21 20:58:33
Writing application : mkvmerge v8.5.0 ('Vanishing Act') 64bit
Writing library : libebml v1.3.1 + libmatroska v1.4.2

Video
ID : 1
Format : AVC
Format/Info : Advanced Video Codec
Format profile : High@L3.1
Format settings, CABAC : Yes
Format settings, ReFrames : 5 frames
Codec ID : V_MPEG4/ISO/AVC
Duration : 1 h 33 min
Bit rate : 337 kb/s
Width : 720 pixels
Height : 300 pixels
Display aspect ratio : 2.40:1
Frame rate mode : Constant
Frame rate : 23.976 (24000/1001) FPS
Color space : YUV
Chroma subsampling : 4:2:0
Bit depth : 8 bits
Scan type : Progressive
Bits/(Pixel*Frame) : 0.065
Stream size : 225 MiB (75%)
Writing library : x264 core 155 r2901 7d0ff22
Encoding settings : cabac=1 / ref=5 / deblock=1:-2:-2 / analyse=0x3:0x133 / me=umh / subme=8 / psy=1 / psy_rd=0.90:0.00 / mixed_ref=1 / me_range=16 / chroma_me=1 / trellis=1 / 8x8dct=1 / cqm=0 / deadzone=21,11 / fast_pskip=0 / chroma_qp_offset=-2 / threads=9 / lookahead_threads=1 / sliced_threads=0 / nr=0 / decimate=1 / interlaced=0 / bluray_compat=0 / constrained_intra=0 / bframes=3 / b_pyramid=2 / b_adapt=2 / b_bias=0 / direct=1 / weightb=1 / open_gop=0 / weightp=2 / keyint=240 / keyint_min=23 / scenecut=40 / intra_refresh=0 / rc_lookahead=50 / rc=crf / mbtree=1 / crf=19.0 / qcomp=0.60 / qpmin=0 / qpmax=69 / qpstep=4 / ip_ratio=1.40 / aq=1:1.00
Language : English
Default : Yes
Forced : No
Color range : Limited
Matrix coefficients : BT.709

Audio
ID : 2
Format : AAC
Format/Info : Advanced Audio Codec
Format profile : LC
Codec ID : A_AAC
Duration : 1 h 33 min
Bit rate : 109 kb/s
Channel(s) : 2 channels
Channel positions : Front: L R
Sampling rate : 48.0 kHz
Frame rate : 46.875 FPS (1024 spf)
Compression mode : Lossy
Delay relative to video : 9 ms
Stream size : 72.4 MiB (24%)
Language : English
Default : Yes
Forced : No

Menu #1
00:00:00.000 : en:00:00:00.000
00:10:28.670 : en:00:10:28.670
00:20:05.871 : en:00:20:05.871
00:30:09.975 : en:00:30:09.975
00:38:43.446 : en:00:38:43.446
00:47:37.855 : en:00:47:37.855
00:55:57.104 : en:00:55:57.104
01:05:31.469 : en:01:05:31.469
01:14:27.880 : en:01:14:27.880
01:19:20.965 : en:01:19:20.965
01:28:48.323 : en:01:28:48.323

Menu #2
00:00:00.054 : en:00:00:00.054

General
Sweet.Virginia.2017.BRRip.XviD.AC3-EVO.avi
Format : AVI
Format/Info : Audio Video Interleave
File size : 1.29 GiB
Duration : 1 h 33 min
Overall bit rate : 1 976 kb/s
Writing library : VirtualDub build 32593/release

Video
ID : 0
Format : MPEG-4 Visual
Format profile : Advanced Simple@L5
Format settings, BVOP : 2
Format settings, QPel : No
Format settings, GMC : No warppoints
Format settings, Matrix : Default (H.263)
Muxing mode : Packed bitstream
Codec ID : XVID
Codec ID/Hint : XviD
Duration : 1 h 33 min
Bit rate : 1 519 kb/s
Width : 720 pixels
Height : 304 pixels
Display aspect ratio : 2.35:1
Frame rate : 23.976 (24000/1001) FPS
Color space : YUV
Chroma subsampling : 4:2:0
Bit depth : 8 bits
Scan type : Progressive
Compression mode : Lossy
Bits/(Pixel*Frame) : 0.289
Stream size : 1 013 MiB (77%)
Writing library : XviD 66

Audio
ID : 1
Format : AC-3
Format/Info : Audio Coding 3
Mode extension : CM (complete main)
Format settings, Endianness : Big
Codec ID : 2000
Duration : 1 h 33 min
Bit rate mode : Constant
Bit rate : 448 kb/s
Channel(s) : 6 channels
Channel positions : Front: L C R, Side: L R, LFE
Sampling rate : 48.0 kHz
Frame rate : 31.250 FPS (1536 spf)
Bit depth : 16 bits
Compression mode : Lossy
Stream size : 299 MiB (23%)
Alignment : Aligned on interleaves
Interleave, duration : 42 ms (1.00 video frame)
Interleave, preload duration : 512 ms

General
sweet.virginia.2017.limited.720p.bluray.x264-veto.mkv
Format : Matroska
Format version : Version 4 / Version 2
File size : 4.37 GiB
Duration : 1 h 33 min
Overall bit rate : 6 704 kb/s
Encoded date : UTC 2018-01-21 20:37:17
Writing application : mkvmerge v8.5.0 ('Vanishing Act') 64bit
Writing library : libebml v1.3.1 + libmatroska v1.4.2

Video
ID : 1
Format : AVC
Format/Info : Advanced Video Codec
Format profile : High@L4.1
Format settings, CABAC : Yes
Format settings, ReFrames : 5 frames
Codec ID : V_MPEG4/ISO/AVC
Duration : 1 h 33 min
Bit rate : 5 193 kb/s
Width : 1 280 pixels
Height : 536 pixels
Display aspect ratio : 2.40:1
Frame rate mode : Constant
Frame rate : 23.976 (24000/1001) FPS
Color space : YUV
Chroma subsampling : 4:2:0
Bit depth : 8 bits
Scan type : Progressive
Bits/(Pixel*Frame) : 0.316
Stream size : 3.38 GiB (77%)
Writing library : x264 core 155 r2901 7d0ff22
Encoding settings : cabac=1 / ref=5 / deblock=1:-1:-1 / analyse=0x3:0x133 / me=umh / subme=8 / psy=1 / psy_rd=1.00:0.15 / mixed_ref=1 / me_range=16 / chroma_me=1 / trellis=1 / 8x8dct=1 / cqm=0 / deadzone=21,11 / fast_pskip=0 / chroma_qp_offset=-4 / threads=17 / lookahead_threads=2 / sliced_threads=0 / nr=0 / decimate=1 / interlaced=0 / bluray_compat=0 / constrained_intra=0 / bframes=3 / b_pyramid=2 / b_adapt=2 / b_bias=0 / direct=3 / weightb=1 / open_gop=0 / weightp=2 / keyint=240 / keyint_min=23 / scenecut=40 / intra_refresh=0 / rc_lookahead=50 / rc=2pass / mbtree=1 / bitrate=5193 / ratetol=1.0 / qcomp=0.60 / qpmin=10 / qpmax=69 / qpstep=4 / cplxblur=20.0 / qblur=0.5 / ip_ratio=1.40 / aq=1:1.00
Language : English
Default : Yes
Forced : No

Audio
ID : 2
Format : DTS
Format/Info : Digital Theater Systems
Mode : 16
Format settings, Endianness : Big
Codec ID : A_DTS
Duration : 1 h 33 min
Bit rate mode : Constant
Bit rate : 1 509 kb/s
Channel(s) : 6 channels
Channel positions : Front: L C R, Side: L R, LFE
Sampling rate : 48.0 kHz
Frame rate : 93.750 FPS (512 spf)
Bit depth : 24 bits
Compression mode : Lossy
Stream size : 1 006 MiB (23%)
Language : English
Default : Yes
Forced : No

Menu
00:00:00.000 : en:00:00:00.000
00:10:28.670 : en:00:10:28.670
00:20:05.871 : en:00:20:05.871
00:30:09.975 : en:00:30:09.975
00:38:43.446 : en:00:38:43.446
00:47:37.855 : en:00:47:37.855
00:55:57.104 : en:00:55:57.104
01:05:31.469 : en:01:05:31.469
01:14:27.880 : en:01:14:27.880
01:19:20.965 : en:01:19:20.965
01:28:48.323 : en:01:28:48.323

General
sweet.virginia.2017.limited.1080p.bluray.x264-veto.mkv
Format : Matroska
Format version : Version 4 / Version 2
File size : 6.55 GiB
Duration : 1 h 33 min
Overall bit rate : 10.1 Mb/s
Encoded date : UTC 2018-01-21 19:45:00
Writing application : mkvmerge v8.5.0 ('Vanishing Act') 64bit
Writing library : libebml v1.3.1 + libmatroska v1.4.2

Video
ID : 1
Format : AVC
Format/Info : Advanced Video Codec
Format profile : High@L4.1
Format settings, CABAC : Yes
Format settings, ReFrames : 5 frames
Codec ID : V_MPEG4/ISO/AVC
Duration : 1 h 33 min
Bit rate : 8 552 kb/s
Width : 1 920 pixels
Height : 800 pixels
Display aspect ratio : 2.40:1
Frame rate mode : Constant
Frame rate : 23.976 (24000/1001) FPS
Color space : YUV
Chroma subsampling : 4:2:0
Bit depth : 8 bits
Scan type : Progressive
Bits/(Pixel*Frame) : 0.232
Stream size : 5.57 GiB (85%)
Writing library : x264 core 155 r2901 7d0ff22
Encoding settings : cabac=1 / ref=5 / deblock=1:-1:-1 / analyse=0x3:0x133 / me=umh / subme=8 / psy=1 / psy_rd=1.00:0.15 / mixed_ref=1 / me_range=16 / chroma_me=1 / trellis=1 / 8x8dct=1 / cqm=0 / deadzone=21,11 / fast_pskip=0 / chroma_qp_offset=-4 / threads=24 / lookahead_threads=4 / sliced_threads=0 / nr=0 / decimate=1 / interlaced=0 / bluray_compat=0 / constrained_intra=0 / bframes=3 / b_pyramid=2 / b_adapt=2 / b_bias=0 / direct=3 / weightb=1 / open_gop=0 / weightp=2 / keyint=240 / keyint_min=23 / scenecut=40 / intra_refresh=0 / rc_lookahead=50 / rc=2pass / mbtree=1 / bitrate=8552 / ratetol=1.0 / qcomp=0.60 / qpmin=10 / qpmax=69 / qpstep=4 / cplxblur=20.0 / qblur=0.5 / ip_ratio=1.40 / aq=1:1.00
Language : English
Default : Yes
Forced : No

Audio
ID : 2
Format : DTS
Format/Info : Digital Theater Systems
Mode : 16
Format settings, Endianness : Big
Codec ID : A_DTS
Duration : 1 h 33 min
Bit rate mode : Constant
Bit rate : 1 509 kb/s
Channel(s) : 6 channels
Channel positions : Front: L C R, Side: L R, LFE
Sampling rate : 48.0 kHz
Frame rate : 93.750 FPS (512 spf)
Bit depth : 24 bits
Compression mode : Lossy
Stream size : 1 006 MiB (15%)
Language : English
Default : Yes
Forced : No

Menu
00:00:00.000 : en:00:00:00.000
00:10:28.670 : en:00:10:28.670
00:20:05.871 : en:00:20:05.871
00:30:09.975 : en:00:30:09.975
00:38:43.446 : en:00:38:43.446
00:47:37.855 : en:00:47:37.855
00:55:57.104 : en:00:55:57.104
01:05:31.469 : en:01:05:31.469
01:14:27.880 : en:01:14:27.880
01:19:20.965 : en:01:19:20.965
01:28:48.323 : en:01:28:48.323


BDRip Screenshots

Sweet Virginia (2017)

Sweet Virginia (2017)

Sweet Virginia (2017)


BRRip Screenshots

Sweet Virginia (2017)

Sweet Virginia (2017)

Sweet Virginia (2017)


BDRip 720p Screenshots

Sweet Virginia (2017)

Sweet Virginia (2017)

Sweet Virginia (2017)


BDRip 1080p Screenshots

Sweet Virginia (2017)

Sweet Virginia (2017)

Sweet Virginia (2017)


Come Visit My Blog (•‿•)