Tags
Language
Tags

Sweetness in the Belly (2019)

Posted By: Tavaz
720p (HD) / BDRip IMDb
Sweetness in the Belly (2019)

Sweetness in the Belly (2019)
BDRip | MKV | 1280x720 | English | H264 @ 2560 kbps | AC-3 @ 448 kbps | 1 h 50 min | 2.31 GiB
Subtitles: English
Genre: Drama

Orphaned in Africa as a child, Lilly escapes to England as a refugee, fleeing civil war in Ethiopia. Lost in this cold new world, Lilly embraces the immigrant community in London, attempting to reunite people with their scattered families. But as her friend Amina discovers, Lilly's mission isn't purely selfless: a passionate lost love affair is revealed.

2e98e28a829057d1bb4475f715c6b531.mkv (2.3 GB)



General
Unique ID : 119481635113251395700902213953318186650 (0x59E3536D52D8A1318B70AC81B03E6E9A)
Complete name : ./2e98e28a829057d1bb4475f715c6b531.mkv
Format : Matroska
Format version : Version 4 / Version 2
File size : 2.31 GiB
Duration : 1 h 50 min
Overall bit rate : 3 008 kb/s
Movie name : Sweetness.in.the.Belly.720p.BluRay.x264-x0r
Encoded date : UTC 2021-07-13 22:42:59
Writing application : mkvmerge v7.7.0 ('Six Voices') 64bit built on Mar 1 2015 01:50:05
Writing library : libebml v1.3.1 + libmatroska v1.4.2

Video
ID : 1
Format : AVC
Format/Info : Advanced Video Codec
Format profile : High@L4
Format settings : CABAC / 8 Ref Frames
Format settings, CABAC : Yes
Format settings, RefFrames : 8 frames
Codec ID : V_MPEG4/ISO/AVC
Duration : 1 h 50 min
Bit rate : 2 560 kb/s
Width : 1 280 pixels
Height : 720 pixels
Display aspect ratio : 16:9
Frame rate mode : Constant
Frame rate : 23.976 (24000/1001) FPS
Color space : YUV
Chroma subsampling : 4:2:0
Bit depth : 8 bits
Scan type : Progressive
Bits/(Pixel*Frame) : 0.116
Stream size : 1.97 GiB (85%)
Writing library : x264 core 148 r2643 5c65704
Encoding settings : cabac=1 / ref=8 / deblock=1:-2:-2 / analyse=0x3:0x133 / me=umh / subme=9 / psy=1 / psy_rd=1.00:0.25 / mixed_ref=1 / me_range=24 / chroma_me=1 / trellis=2 / 8x8dct=1 / cqm=0 / deadzone=21,11 / fast_pskip=1 / chroma_qp_offset=-4 / threads=12 / lookahead_threads=1 / sliced_threads=0 / nr=0 / decimate=1 / interlaced=0 / bluray_compat=0 / constrained_intra=0 / bframes=4 / b_pyramid=2 / b_adapt=2 / b_bias=0 / direct=3 / weightb=1 / open_gop=0 / weightp=2 / keyint=240 / keyint_min=24 / scenecut=40 / intra_refresh=0 / rc_lookahead=120 / rc=2pass / mbtree=1 / bitrate=2560 / ratetol=1.0 / qcomp=0.60 / qpmin=0 / qpmax=69 / qpstep=4 / cplxblur=20.0 / qblur=0.5 / vbv_maxrate=20000 / vbv_bufsize=25000 / nal_hrd=none / filler=0 / ip_ratio=1.40 / aq=1:1.00
Language : English
Default : Yes
Forced : No
Color range : Limited
Color primaries : BT.709
Transfer characteristics : BT.709
Matrix coefficients : BT.709

Audio
ID : 2
Format : AC-3
Format/Info : Audio Coding 3
Format settings, Endianness : Big
Codec ID : A_AC3
Duration : 1 h 50 min
Bit rate mode : Constant
Bit rate : 448 kb/s
Channel(s) : 6 channels
Channel positions : Front: L C R, Side: L R, LFE
Sampling rate : 48.0 kHz
Frame rate : 31.250 FPS (1536 SPF)
Bit depth : 16 bits
Compression mode : Lossy
Stream size : 353 MiB (15%)
Title : Surround
Language : English
Service kind : Complete Main
Default : Yes
Forced : No

Text
ID : 3
Format : UTF-8
Codec ID : S_TEXT/UTF8
Codec ID/Info : UTF-8 Plain Text
Duration : 1 h 47 min
Bit rate : 39 b/s
Count of elements : 1116
Stream size : 31.5 KiB (0%)
Language : English
Default : Yes
Forced : No

Menu
00:00:00.000 : :Chapter 1
00:10:34.175 : :Chapter 2
00:23:06.635 : :Chapter 3
00:31:03.570 : :Chapter 4
00:41:29.612 : :Chapter 5
00:51:13.445 : :Chapter 6
01:01:00.699 : :Chapter 7
01:12:15.790 : :Chapter 8
01:22:18.267 : :Chapter 9
01:31:47.168 : :Chapter 10
01:42:47.745 : :Chapter 11





Sweetness in the Belly (2019)


Sweetness in the Belly (2019)


Sweetness in the Belly (2019)


Sweetness in the Belly (2019)


Sweetness in the Belly (2019)