Tags
Language
Tags

NG. - Symphony For Our World (2019)

Posted By: notbanned
720p (HD) / HDTV
NG. - Symphony For Our World (2019)

NG. - Symphony For Our World (2019)
HDTV | 1280x720 | .MKV/AVC @ 3360 Kbps | 55 min 9 s | 1.34 GiB
Audio: English AAC 127 kbps, 2 channels | Subs: English
Genre: Documentary

This Earth Day, 2018, National Geographic embarks on a journey of artistry and science through a global, musical exploration of the sea, shore, land, mountains and sky with a five part composition as varied, dynamic and stunning as Earth itself. Symphony For Our World weaves together awe-inspiring moments, breathtaking discoveries and intimate portraits of wildlife. Through an exclusive collaboration with Bleeding Fingers and X Ambassadors who share our passion for the planet, each of the five movements of this original symphony accompany a visual narrative. Beginning in the depths of our mysterious seas, we emerge onto stormy shores, take in vast landscapes and evolving eco-systems, rise to desolate mountain peaks and reveal soaring, stunning views of the pale blue dot we call home. Music and visuals tell a story of the complex yet fragile nature of the fascinating and wondrous eco-systems that allow us to survive and thrive together. Symphony For Our World creates a chorus of celebration in honor of Earth, reminding us why it's vitally important to conserve, protect and preserve all of our planet's resources.

General
Unique ID : 154417635541762590237552936875925883657 (0x742BC13C16C95B5D6B2E2A80071ACB09)
Complete name : Symphony.For.Our.World.2018.720p.mkv
Format : Matroska
Format version : Version 4 / Version 2
File size : 1.34 GiB
Duration : 55 min 9 s
Overall bit rate : 3 484 kb/s

Video
ID : 2
Format : AVC
Format/Info : Advanced Video Codec
Format profile : High@L3.1
Format settings, CABAC : Yes
Format settings, ReFrames : 2 frames
Codec ID : V_MPEG4/ISO/AVC
Duration : 55 min 8 s
Bit rate : 3 360 kb/s
Width : 1 280 pixels
Height : 720 pixels
Display aspect ratio : 16:9
Frame rate mode : Constant
Frame rate : 29.970 FPS
Color space : YUV
Chroma subsampling : 4:2:0
Bit depth : 8 bits
Scan type : Progressive
Bits/(Pixel*Frame) : 0.122
Stream size : 1.29 GiB (96%)
Writing library : x264 core 148 r2579M 73ae2d1
Encoding settings : cabac=1 / ref=2 / deblock=1:0:0 / analyse=0x3:0x113 / me=hex / subme=2 / psy=1 / psy_rd=1.00:0.00 / mixed_ref=0 / me_range=16 / chroma_me=1 / trellis=0 / 8x8dct=1 / cqm=0 / deadzone=21,11 / fast_pskip=1 / chroma_qp_offset=0 / threads=4 / lookahead_threads=1 / sliced_threads=0 / nr=250 / decimate=1 / interlaced=0 / bluray_compat=0 / stitchable=1 / constrained_intra=0 / bframes=0 / weightp=1 / keyint=250 / keyint_min=25 / scenecut=40 / intra_refresh=0 / rc_lookahead=10 / rc=2pass / mbtree=1 / bitrate=3360 / ratetol=1.0 / qcomp=0.60 / qpmin=5 / qpmax=69 / qpstep=4 / cplxblur=20.0 / qblur=0.5 / vbv_maxrate=6720 / vbv_bufsize=3360 / nal_hrd=none / filler=0 / ip_ratio=1.40 / aq=1:1.00
Language : English
Default : Yes
Forced : No
Color range : Limited
Color primaries : BT.709
Transfer characteristics : BT.709
Matrix coefficients : BT.709

Audio
ID : 1
Format : AAC
Format/Info : Advanced Audio Codec
Format profile : HE-AAC / LC
Codec ID : A_AAC
Duration : 55 min 9 s
Bit rate : 127 kb/s
Channel(s) : 2 channels
Channel positions : Front: L R
Sampling rate : 48.0 kHz / 24.0 kHz
Frame rate : 23.438 FPS (1024 spf)
Compression mode : Lossy
Stream size : 50.0 MiB (4%)
Language : English
Default : Yes
Forced : No

Text
ID : 3
Format : UTF-8
Codec ID : S_TEXT/UTF8
Codec ID/Info : UTF-8 Plain Text
Duration : 54 min 58 s
Bit rate : 28 b/s
Count of elements : 592
Stream size : 11.6 KiB (0%)
Language : English
Default : No
Forced : No


Screenshots:

NG. - Symphony For Our World (2019)

NG. - Symphony For Our World (2019)

NG. - Symphony For Our World (2019)

NG. - Symphony For Our World (2019)