Tags
Language
Tags

Take Every Wave: The Life of Laird Hamilton (2017)

Posted By: Without
1080p (FullHD) / WEB-DL IMDb
Take Every Wave: The Life of Laird Hamilton (2017)

Take Every Wave: The Life of Laird Hamilton (2017)
WEB-DL 1080p | MKV | 1920x1080 | AVC@5107 kb/s | English AC3@384 kb/s (6 ch)
English AAC@125 kb/s (2 ch) | Subs: English | 1 h 57 min | 4.62 GB
Genre: Documentary, Sport

This is the remarkable story of an American icon who changed the sport of big wave surfing forever. Transcending the surf genre, this in-depth portrait of a hard-charging athlete explores the fear, courage and ambition that push a man to greatness–and the cost that comes with it.

IMDB - 1 win & 1 nomination.


General
Take.Every.Wave.The.Life.of.Laird.Hamilton.2017.1080p.WEB-DL.DD.5.1.H.264.mkv
Format : Matroska
Format version : Version 4 / Version 2
File size : 4.62 GiB
Duration : 1 h 57 min
Overall bit rate : 5 619 kb/s
Encoded date : UTC 2018-02-18 14:47:05
Writing application : mkvmerge v20.0.0 ('I Am The Sun') 64-bit
Writing library : libebml v1.3.5 + libmatroska v1.4.8

Video
ID : 3
Format : AVC
Format/Info : Advanced Video Codec
Format profile : High@L4
Format settings : CABAC / 4 Ref Frames
Format settings, CABAC : Yes
Format settings, RefFrames : 4 frames
Codec ID : V_MPEG4/ISO/AVC
Duration : 1 h 57 min
Bit rate : 5 107 kb/s
Width : 1 920 pixels
Height : 1 080 pixels
Display aspect ratio : 16:9
Frame rate mode : Constant
Frame rate : 23.976 FPS
Color space : YUV
Chroma subsampling : 4:2:0
Bit depth : 8 bits
Scan type : Progressive
Bits/(Pixel*Frame) : 0.103
Stream size : 4.20 GiB (91%)
Language : English
Default : Yes
Forced : No
Color range : Limited
Color primaries : BT.709
Transfer characteristics : BT.709
Matrix coefficients : BT.709

Audio #1
ID : 1
Format : AC-3
Format/Info : Audio Coding 3
Codec ID : A_AC3
Duration : 1 h 57 min
Bit rate mode : Constant
Bit rate : 384 kb/s
Channel(s) : 6 channels
Channel positions : Front: L C R, Side: L R, LFE
Sampling rate : 48.0 kHz
Frame rate : 31.250 FPS (1536 SPF)
Bit depth : 16 bits
Compression mode : Lossy
Delay relative to video : -42 ms
Stream size : 323 MiB (7%)
Language : English
Service kind : Complete Main
Default : Yes
Forced : No

Audio #2
ID : 2
Format : AAC
Format/Info : Advanced Audio Codec
Format profile : LC
Codec ID : A_AAC-2
Duration : 1 h 57 min
Bit rate : 125 kb/s
Channel(s) : 2 channels
Channel positions : Front: L R
Sampling rate : 48.0 kHz
Frame rate : 46.875 FPS (1024 SPF)
Compression mode : Lossy
Delay relative to video : -42 ms
Stream size : 105 MiB (2%)
Language : English
Default : No
Forced : No

Text
ID : 4
Format : UTF-8
Codec ID : S_TEXT/UTF8
Codec ID/Info : UTF-8 Plain Text
Duration : 1 h 54 min
Bit rate : 154 b/s
Count of elements : 2118
Stream size : 129 KiB (0%)
Language : English
Default : No
Forced : No

Menu
00:00:00.000 : en:1
00:11:25.769 : en:2
00:22:25.887 : en:3
00:34:04.460 : en:4
00:46:28.787 : en:5
00:58:28.673 : en:6
01:06:45.086 : en:7
01:17:27.812 : en:8
01:28:57.251 : en:9
01:38:30.240 : en:10
01:54:44.797 : en:11


WEB-DL 1080p Screenshots

Take Every Wave: The Life of Laird Hamilton (2017)

Take Every Wave: The Life of Laird Hamilton (2017)

Take Every Wave: The Life of Laird Hamilton (2017)

Take Every Wave: The Life of Laird Hamilton (2017)

Take Every Wave: The Life of Laird Hamilton (2017)


Come Visit My Blog (•‿•)