Subcategories

Company of Women on the Screen - Taking Flight (2013)

Posted By: notbanned
Company of Women on the Screen - Taking Flight (2013)

Company of Women on the Screen - Taking Flight (2013)
HDTV | 1280x720 | .MKV/AVC @ 2623 Kbps | 39min 16s | 862 MiB
Audio: English AC3 384 kbps, 6 channels | Subs: None
Genre: Documentary

This film follows the struggles and triumphs of Edmonton's resident ballet company as it takes a giant risk and turns professional.


General
Unique ID : 238298023871349374966690760833415587299 (0xB34687AD2D2EC98DB960460BEA9525E3)
Complete name : Taking.Flight.HDTV.x264.720p.mkv
Format : Matroska
Format version : Version 4 / Version 2
File size : 862 MiB
Duration : 39 min 16 s
Overall bit rate : 3 068 kb/s

Video
ID : 1
Format : AVC
Format/Info : Advanced Video Codec
Format profile : High@L4.1
Format settings, CABAC : Yes
Format settings, ReFrames : 5 frames
Codec ID : V_MPEG4/ISO/AVC
Duration : 39 min 16 s
Bit rate : 2 623 kb/s
Width : 1 280 pixels
Height : 720 pixels
Display aspect ratio : 16:9
Frame rate mode : Constant
Frame rate : 29.970 (30000/1001) FPS
Color space : YUV
Chroma subsampling : 4:2:0
Bit depth : 8 bits
Scan type : Progressive
Bits/(Pixel*Frame) : 0.095
Stream size : 737 MiB (85%)
Writing library : x264 core 148 r2638 7599210
Encoding settings : cabac=1 / ref=5 / deblock=1:-1:-1 / analyse=0x3:0x133 / me=esa / subme=7 / psy=1 / psy_rd=1.00:0.00 / mixed_ref=1 / me_range=24 / chroma_me=1 / trellis=2 / 8x8dct=1 / cqm=0 / deadzone=21,11 / fast_pskip=0 / chroma_qp_offset=-2 / threads=6 / lookahead_threads=1 / sliced_threads=0 / nr=0 / decimate=1 / interlaced=0 / bluray_compat=0 / constrained_intra=0 / bframes=5 / b_pyramid=0 / b_adapt=2 / b_bias=0 / direct=3 / weightb=1 / open_gop=0 / weightp=2 / keyint=300 / keyint_min=29 / scenecut=40 / intra_refresh=0 / rc_lookahead=60 / rc=crf / mbtree=1 / crf=20.0 / qcomp=0.60 / qpmin=10 / qpmax=51 / qpstep=4 / vbv_maxrate=62500 / vbv_bufsize=78125 / crf_max=0.0 / nal_hrd=none / filler=0 / ip_ratio=1.40 / aq=1:1.05
Language : English
Default : Yes
Forced : No

Audio
ID : 2
Format : AC-3
Format/Info : Audio Coding 3
Format settings, Endianness : Big
Codec ID : A_AC3
Duration : 39 min 16 s
Bit rate mode : Constant
Bit rate : 384 kb/s
Channel(s) : 6 channels
Channel positions : Front: L C R, Side: L R, LFE
Sampling rate : 48.0 kHz
Frame rate : 31.250 FPS (1536 spf)
Bit depth : 16 bits
Compression mode : Lossy
Stream size : 108 MiB (13%)
Service kind : Complete Main
Default : Yes
Forced : No


Screenshots:

Company of Women on the Screen - Taking Flight (2013)

Company of Women on the Screen - Taking Flight (2013)

Company of Women on the Screen - Taking Flight (2013)

Company of Women on the Screen - Taking Flight (2013)