Tell Them Anything You Want: A Portrait of Maurice Sendak (2009)

Posted By: vivid23
Tell Them Anything You Want: A Portrait of Maurice Sendak (2009)

Tell Them Anything You Want: A Portrait of Maurice Sendak (2009)
DVDrip | 720x416 | AVI/XviD @ 2041 Kbps | 40mn | Audio: English AC3 224 kbps, 2 channels | Subs: None | 784 MB
Genre: Documentary

The unconventional creator of iconic children's books Where the Wild Things Are and In the Night Kitchen is given an equally idiosyncratic look in this diary-style documentary from directors Spike Jonze and Lance Bangs. In a series of conversations conducted over several years, Maurice Sendak is alternately reticent and forthcoming about his inspirations, his family history and what he'd like to accomplish in the future.

More info


Video
ID : 0
Format : MPEG-4 Visual
Format profile : Advanced Simple@L5
Format settings, BVOP : Yes
Format settings, QPel : No
Format settings, GMC : No warppoints
Format settings, Matrix : Custom
Codec ID : XVID
Codec ID/Hint : XviD
Duration : 40mn 17s
Bit rate : 2 041 Kbps
Width : 720 pixels
Height : 416 pixels
Display aspect ratio : 16:9
Frame rate : 23.976 fps
Color space : YUV
Chroma subsampling : 4:2:0
Bit depth : 8 bits
Scan type : Progressive
Compression mode : Lossy
Bits/(Pixel*Frame) : 0.284
Stream size : 588 MiB (75%)
Writing library : XviD 1.1.2 (UTC 2006-11-01)

Audio #1
ID : 1
Format : AC-3
Format/Info : Audio Coding 3
Mode extension : CM (complete main)
Codec ID : 2000
Duration : 40mn 16s
Bit rate mode : Constant
Bit rate : 224 Kbps
Channel(s) : 2 channels
Channel positions : Front: L R
Sampling rate : 48.0 KHz
Bit depth : 16 bits
Compression mode : Lossy
Stream size : 64.5 MiB (8%)
Alignment : Split accross interleaves
Interleave, duration : 96 ms (2.30 video frames)
Interleave, preload duration : 96 ms
Language : English

Audio #2
ID : 2
Format : AC-3
Format/Info : Audio Coding 3
Mode extension : CM (complete main)
Codec ID : 2000
Duration : 40mn 16s
Bit rate mode : Constant
Bit rate : 448 Kbps
Channel(s) : 6 channels
Channel positions : Front: L C R, Side: L R, LFE
Sampling rate : 48.0 KHz
Bit depth : 16 bits
Compression mode : Lossy
Stream size : 129 MiB (16%)
Alignment : Split accross interleaves
Interleave, duration : 96 ms (2.30 video frames)
Interleave, preload duration : 96 ms
Language : English


Tell Them Anything You Want: A Portrait of Maurice Sendak (2009)

Tell Them Anything You Want: A Portrait of Maurice Sendak (2009)


Feel free to contact me when links are dead