Tags
Language
Tags

The Apprentice: You're Fired! S13E12

Posted By: Tavaz
SD / WEB-DL IMDb
The Apprentice: You're Fired! S13E12

The Apprentice: You're Fired! S13E12
WEB-DL | MOV | 704x396 | English | H264 @ 826 kbps | AAC @ 317 kbps | 57 min 50 s | 475 MiB

The Apprentice: You're Fired!, sometimes named You're Fired!, The Apprentice: You're Hired! or You're Hired!, is a British television show made by the BBC and filmed at Riverside Studios as a spin-off from the reality TV hit The Apprentice. It was hosted by Adrian Chiles from 2006 to 2009, and Dara Ó Briain took over as host in 2010 after Chiles' move to ITV. The programme airs in a 30 minute slot after each episode of The Apprentice finishes. It was originally shown on BBC Three, but moved to BBC Two in 2007. Its format is similar to that of Big Brother's Little Brother and Strictly Come Dancing: It Takes Two. The final episode of each series is renamed "The Apprentice: You're Hired!" and involves interviews with the winner, the runner-up and Lord Sugar himself, and a reunion with all of the former candidates.

The.Apprentice.Youre.Fired.UK.S13E12.Youre.Hired.WEB-DL.x264-JIVE.mp4 (475.1 MB)



General
Complete name : ./The.Apprentice.Youre.Fired.UK.S13E12.Youre.Hired.WEB-DL.x264-JIVE.mp4
Format : MPEG-4
Format profile : Base Media
Codec ID : isom (isom/iso2/avc1/mp41)
File size : 475 MiB
Duration : 57 min 50 s
Overall bit rate mode : Variable
Overall bit rate : 1 148 kb/s
Collection : The Apprentice: You're Fired: Series 13
Season : 13
Album : The Apprentice: You're Fired: Series 13
Album/Performer : BBC TV
Part : 12
Part/Position : 13
Track name : You're Hired
Track name/Position : 12
Grouping : Entertainment,Discussion & Talk
Performer : BBC Two
Composer : BBC iPlayer
Genre : Entertainment
ContentType : TV Show
Description : Rhod Gilbert meets the series winner and runner-up as well as Lord Sugar himself.
Recorded date : UTC 2017-12-17 22:10:00
Tagged date : UTC 2017-12-17 23:20:08
Writing application : Lavf57.83.100
Copyright : 2017 British Broadcasting Corporation, all rights reserved
Cover : Yes
Lyrics : Rhod Gilbert meets the winner, runner-up and Lord Sugar himself to discuss the tears, triumphs and most memorable moments of the past 12 weeks. They are joined by former candidates and special guests on the panel. / / EPISODE / http://www.bbc.co.uk/iplayer/episode/b09kb9gf / / SERIES / http://www.bbc.co.uk/programmes/b097s3z4
Comment : Rhod Gilbert meets the series winner and runner-up as well as Lord Sugar himself.
LongDescription : Rhod Gilbert meets the winner, runner-up and Lord Sugar himself to discuss the tears, triumphs and most memorable moments of the past 12 weeks. They are joined by former candidates and special guests on the panel.
Part_ID : s13e12
TVNetworkName : BBC Two

Video
ID : 1
Format : AVC
Format/Info : Advanced Video Codec
Format profile : Main@L3
Format settings : CABAC / 4 Ref Frames
Format settings, CABAC : Yes
Format settings, RefFrames : 4 frames
Format settings, GOP : M=8, N=96
Codec ID : avc1
Codec ID/Info : Advanced Video Coding
Duration : 57 min 50 s
Bit rate : 826 kb/s
Width : 704 pixels
Height : 396 pixels
Display aspect ratio : 16:9
Frame rate mode : Constant
Frame rate : 25.000 FPS
Color space : YUV
Chroma subsampling : 4:2:0
Bit depth : 8 bits
Scan type : Progressive
Bits/(Pixel*Frame) : 0.119
Stream size : 342 MiB (72%)
Color range : Limited
Color primaries : BT.709
Transfer characteristics : BT.709
Matrix coefficients : BT.709

Audio
ID : 2
Format : AAC
Format/Info : Advanced Audio Codec
Format profile : LC
Codec ID : mp4a-40-2
Duration : 57 min 50 s
Bit rate mode : Variable
Bit rate : 317 kb/s
Maximum bit rate : 339 kb/s
Channel(s) : 2 channels
Channel positions : Front: L R
Sampling rate : 48.0 kHz
Frame rate : 46.875 FPS (1024 SPF)
Compression mode : Lossy
Stream size : 131 MiB (28%)
Language : English
Default : Yes
Alternate group : 1





The Apprentice: You're Fired! S13E12


The Apprentice: You're Fired! S13E12


The Apprentice: You're Fired! S13E12


The Apprentice: You're Fired! S13E12


The Apprentice: You're Fired! S13E12

All episodes