Tags
Language
Tags

The Art of Racing in the Rain (2019)

Posted By: Tavaz
1080p (FullHD) / BDRip IMDb
The Art of Racing in the Rain (2019)

The Art of Racing in the Rain (2019)
BDRip | MKV | 1920x1040 | English | H265 @ 2023 kbps | AAC @ 288 kbps | 1 h 48 min | 1.76 GiB
Subtitles: English
Genre: Comedy, Drama, Romance



c44bcc2527c6e5e507c9e388c21447a3.mkv (1.8 GB)



General
Complete name : ./c44bcc2527c6e5e507c9e388c21447a3.mkv
Format : Matroska
Format version : Version 4 / Version 2
File size : 1.76 GiB
Duration : 1 h 48 min
Overall bit rate : 2 316 kb/s
Encoded date : UTC 2019-11-01 09:10:30
Writing application : mkvmerge v38.0.0 ('The Silent Type') 64-bit
Writing library : libebml v1.3.9 + libmatroska v1.5.2

Video
ID : 1
Format : HEVC
Format/Info : High Efficiency Video Coding
Format profile : Main 10@L4@Main
Codec ID : V_MPEGH/ISO/HEVC
Duration : 1 h 48 min
Bit rate : 2 023 kb/s
Width : 1 920 pixels
Height : 1 040 pixels
Display aspect ratio : 1.85:1
Frame rate mode : Constant
Frame rate : 23.976 (24000/1001) FPS
Color space : YUV
Chroma subsampling : 4:2:0
Bit depth : 10 bits
Bits/(Pixel*Frame) : 0.042
Stream size : 1.54 GiB (87%)
Default : Yes
Forced : No

Audio
ID : 2
Format : AAC
Format/Info : Advanced Audio Codec
Format profile : HE-AAC / LC
Format settings : Explicit
Codec ID : A_AAC-2
Duration : 1 h 48 min
Bit rate : 288 kb/s
Channel(s) : 8 channels
Channel positions : Front: L C R, Side: L R, Back: L R, LFE
Sampling rate : 48.0 kHz / 24.0 kHz
Frame rate : 23.438 FPS (1024 SPF)
Compression mode : Lossy
Delay relative to video : 31 ms
Stream size : 226 MiB (13%)
Language : English
Default : Yes
Forced : No

Text #1
ID : 3
Format : UTF-8
Codec ID : S_TEXT/UTF8
Codec ID/Info : UTF-8 Plain Text
Duration : 1 h 41 min
Bit rate : 75 b/s
Count of elements : 1793
Stream size : 55.8 KiB (0%)
Language : English
Default : Yes
Forced : No

Text #2
ID : 4
Format : UTF-8
Codec ID : S_TEXT/UTF8
Codec ID/Info : UTF-8 Plain Text
Duration : 1 h 41 min
Bit rate : 84 b/s
Count of elements : 1996
Stream size : 63.0 KiB (0%)
Title : SDH
Language : English
Default : No
Forced : No

Menu
00:00:00.000 : :Chapter 1
00:04:51.600 : :Chapter 2
00:10:35.200 : :Chapter 3
00:13:59.600 : :Chapter 4
00:17:26.800 : :Chapter 5
00:20:55.200 : :Chapter 6
00:26:08.800 : :Chapter 7
00:31:05.800 : :Chapter 8
00:36:22.800 : :Chapter 9
00:39:37.600 : :Chapter 10
00:43:47.400 : :Chapter 11
00:48:57.200 : :Chapter 12
00:54:02.800 : :Chapter 13
00:59:17.600 : :Chapter 14
01:03:59.200 : :Chapter 15
01:07:27.600 : :Chapter 16
01:10:49.400 : :Chapter 17
01:14:48.000 : :Chapter 18
01:18:46.600 : :Chapter 19
01:25:07.000 : :Chapter 20
01:28:34.800 : :Chapter 21
01:32:43.800 : :Chapter 22
01:36:30.000 : :Chapter 23
01:41:27.600 : :Chapter 24





The Art of Racing in the Rain (2019)


The Art of Racing in the Rain (2019)


The Art of Racing in the Rain (2019)


The Art of Racing in the Rain (2019)


The Art of Racing in the Rain (2019)