Tags
Language
Tags

The Birthday Cake (2021)

Posted By: Tavaz
1080p (FullHD) / BDRip IMDb
The Birthday Cake (2021)

The Birthday Cake (2021)
BDRip | MKV | 1920x856 | English | H264 @ 14339 kbps | DTS @ 1509 kbps | 1 h 33 min | 10.3 GiB
Subtitles: English
Genre: Crime, Thriller

On the 10th anniversary of his father's death, Giovanni reluctantly accepts the task of bringing a cake to the home of his uncle, a mob boss, for a celebration. Just two hours into the night, Gio's life is forever changed.

The.Birthday.Cake.2021.1080p.BluRay.DTS.x264-WoAT.part1.rar (5.4 GB)
The.Birthday.Cake.2021.1080p.BluRay.DTS.x264-WoAT.part2.rar (5.0 GB)



General
Unique ID : 54523872017662922546044984128551200334 (0x2904EA70937D4D1E9B22B9E4285B264E)
Complete name : ./fdf1fadc3996181872feda94abfefca4.mkv
Format : Matroska
Format version : Version 4 / Version 2
File size : 10.3 GiB
Duration : 1 h 33 min
Overall bit rate : 15.9 Mb/s
Encoded date : UTC 2021-07-28 09:31:41
Writing application : mkvmerge v58.0.0 ('Supper's Ready') 64-bit
Writing library : libebml v1.4.2 + libmatroska v1.6.4

Video
ID : 1
Format : AVC
Format/Info : Advanced Video Codec
Format profile : High@L4.1
Format settings : CABAC / 5 Ref Frames
Format settings, CABAC : Yes
Format settings, RefFrames : 5 frames
Codec ID : V_MPEG4/ISO/AVC
Duration : 1 h 33 min
Bit rate : 14.3 Mb/s
Width : 1 920 pixels
Height : 856 pixels
Display aspect ratio : 2.25:1
Frame rate mode : Constant
Frame rate : 23.976 (24000/1001) FPS
Color space : YUV
Chroma subsampling : 4:2:0
Bit depth : 8 bits
Scan type : Progressive
Bits/(Pixel*Frame) : 0.364
Stream size : 9.32 GiB (90%)
Writing library : x264 core 164 r3065 ae03d92
Encoding settings : cabac=1 / ref=5 / deblock=1:-3:-3 / analyse=0x3:0x133 / me=umh / subme=9 / psy=1 / psy_rd=1.00:0.00 / mixed_ref=1 / me_range=32 / chroma_me=1 / trellis=2 / 8x8dct=1 / cqm=0 / deadzone=21,11 / fast_pskip=0 / chroma_qp_offset=-2 / threads=16 / lookahead_threads=2 / sliced_threads=0 / nr=0 / decimate=0 / interlaced=0 / bluray_compat=0 / constrained_intra=0 / bframes=8 / b_pyramid=2 / b_adapt=2 / b_bias=0 / direct=3 / weightb=1 / open_gop=0 / weightp=2 / keyint=250 / keyint_min=23 / scenecut=40 / intra_refresh=0 / rc_lookahead=60 / rc=crf / mbtree=1 / crf=18.5 / qcomp=0.60 / qpmin=0 / qpmax=69 / qpstep=4 / ip_ratio=1.40 / aq=3:0.88
Default : Yes
Forced : No
Color range : Limited
Color primaries : BT.709
Transfer characteristics : BT.709
Matrix coefficients : BT.709

Audio
ID : 2
Format : DTS
Format/Info : Digital Theater Systems
Mode : 16
Format settings, Endianness : Big
Codec ID : A_DTS
Duration : 1 h 33 min
Bit rate mode : Constant
Bit rate : 1 509 kb/s
Channel(s) : 6 channels
Channel positions : Front: L C R, Side: L R, LFE
Sampling rate : 48.0 kHz
Frame rate : 93.750 FPS (512 SPF)
Bit depth : 24 bits
Compression mode : Lossy
Stream size : 1 004 MiB (9%)
Title : English
Language : English
Default : No
Forced : No

Text
ID : 3
Format : PGS
Muxing mode : zlib
Codec ID : S_HDMV/PGS
Codec ID/Info : Picture based subtitle format used on BDs/HD-DVDs
Duration : 1 h 23 min
Bit rate : 93.6 kb/s
Count of elements : 3060
Stream size : 56.1 MiB (1%)
Title : English
Language : English
Default : No
Forced : No

Menu
00:00:00.000 : Chapter 01
00:07:17.937 : Chapter 02
00:12:07.060 : Chapter 03
00:22:04.156 : Chapter 04
00:29:49.162 : Chapter 05
00:35:41.097 : Chapter 06
00:41:40.248 : Chapter 07
00:48:56.100 : Chapter 08
00:56:20.085 : Chapter 09
01:04:11.848 : Chapter 10
01:14:27.004 : Chapter 11
01:24:36.738 : Chapter 12





The Birthday Cake (2021)


The Birthday Cake (2021)


The Birthday Cake (2021)


The Birthday Cake (2021)


The Birthday Cake (2021)