Tags
Language
Tags

The Blacklist S05E08 Ian Garvey

Posted By: Tavaz
720p (HD) / WEBRip IMDb
The Blacklist S05E08 Ian Garvey

The Blacklist S05E08 Ian Garvey
MKV | 1280x720 | English | H264 @ 5128 kbps | E-AC-3 @ 640 kb/s | 43 min 1 s | 1.73 GiB
Subtitles: English

For decades, ex-government agent Raymond "Red" Reddington has been one of the globe's most wanted fugitives. But then he agreed to work with the FBI to catch his "blacklist" of mobsters, spies and international terrorists – on the condition that he must work with profiler Elizabeth Keen.




The.Blacklist.S05E08.Ian.Garvey.720p.AMZN.WEBRip.DDP5.1.x264-NTb.mkv (1.7 GB)



General
Unique ID : 223609774673904359140247337279615490237 (0xA839AD143F94B3B595EA8DE2B04158BD)
Complete name : ./The.Blacklist.S05E08.Ian.Garvey.720p.AMZN.WEBRip.DDP5.1.x264-NTb.mkv
Format : Matroska
Format version : Version 4 / Version 2
File size : 1.73 GiB
Duration : 43 min 1 s
Overall bit rate : 5 771 kb/s
Encoded date : UTC 2017-11-16 15:24:37
Writing application : mkvmerge v10.0.0 ('To Drown In You') 64bit
Writing library : libebml v1.3.4 + libmatroska v1.4.5

Video
ID : 1
Format : AVC
Format/Info : Advanced Video Codec
Format profile : High@L4.1
Format settings : CABAC / 9 Ref Frames
Format settings, CABAC : Yes
Format settings, RefFrames : 9 frames
Codec ID : V_MPEG4/ISO/AVC
Duration : 43 min 1 s
Bit rate : 5 129 kb/s
Width : 1 280 pixels
Height : 720 pixels
Display aspect ratio : 16:9
Frame rate mode : Constant
Frame rate : 23.976 (24000/1001) FPS
Color space : YUV
Chroma subsampling : 4:2:0
Bit depth : 8 bits
Scan type : Progressive
Bits/(Pixel*Frame) : 0.232
Stream size : 1.54 GiB (89%)
Writing library : x264 core 148 r2744 b97ae06
Encoding settings : cabac=1 / ref=9 / deblock=1:-3:-3 / analyse=0x3:0x133 / me=umh / subme=10 / psy=1 / psy_rd=1.00:0.00 / mixed_ref=1 / me_range=48 / chroma_me=1 / trellis=2 / 8x8dct=1 / cqm=0 / deadzone=21,11 / fast_pskip=0 / chroma_qp_offset=-2 / threads=12 / lookahead_threads=2 / sliced_threads=0 / nr=0 / decimate=0 / interlaced=0 / bluray_compat=0 / constrained_intra=0 / bframes=9 / b_pyramid=0 / b_adapt=2 / b_bias=0 / direct=3 / weightb=1 / open_gop=0 / weightp=2 / keyint=240 / keyint_min=23 / scenecut=40 / intra_refresh=0 / rc_lookahead=60 / rc=crf / mbtree=0 / crf=17.0 / qcomp=0.60 / qpmin=10 / qpmax=51 / qpstep=4 / vbv_maxrate=62500 / vbv_bufsize=78125 / crf_max=0.0 / nal_hrd=none / filler=0 / ip_ratio=1.40 / pb_ratio=1.30 / aq=3:0.70
Default : Yes
Forced : No

Audio
ID : 2
Format : E-AC-3
Format/Info : Enhanced Audio Coding 3
Format settings, Endianness : Big
Codec ID : A_EAC3
Duration : 43 min 1 s
Bit rate mode : Constant
Bit rate : 640 kb/s
Channel(s) : 6 channels
Channel positions : Front: L C R, Side: L R, LFE
Sampling rate : 48.0 kHz
Frame rate : 187.500 FPS (256 SPF)
Compression mode : Lossy
Stream size : 197 MiB (11%)
Language : English
Service kind : Complete Main
Default : Yes
Forced : No

Text
ID : 3
Format : UTF-8
Codec ID : S_TEXT/UTF8
Codec ID/Info : UTF-8 Plain Text
Duration : 42 min 5 s
Bit rate : 61 b/s
Count of elements : 628
Stream size : 19.1 KiB (0%)
Language : English
Default : No
Forced : No

Menu
00:00:00.000 : en:Questioning your depth of knowledge
00:01:57.000 : en:Title Sequence
00:02:05.000 : en:Liz is getting paranoid
00:04:33.000 : en:A dangerous escape
00:08:00.000 : en:Liz tries to find about the details of vandalism
00:11:20.000 : en:Red help Tom irrespective of their differences
00:15:17.000 : en:A narrow escape for Tom
00:19:44.000 : en:Where there are lies, there is no peace
00:23:04.000 : en:A mix up of mistakes
00:28:43.000 : en:Liz and Tom are in trouble
00:34:37.000 : en:Red rushes to hospital
00:39:14.000 : en:When something goes wrong
00:42:23.000 : en:End Credits





The Blacklist S05E08 Ian Garvey


The Blacklist S05E08 Ian Garvey


The Blacklist S05E08 Ian Garvey


The Blacklist S05E08 Ian Garvey

All episodes