Tags
Language
Tags

The Cabin in the Woods (2012)

Posted By: Tavaz
1080p (FullHD) / BDRip IMDb
The Cabin in the Woods (2012)

The Cabin in the Woods (2012)
BDRip | MKV | 1920x800 | English | H265 @ 2504 kbps | AC-3 @ 448 kbps | 1 h 34 min | 1.96 GiB
Genre: Horror

Five college friends spend the weekend at a remote cabin in the woods, where they get more than they bargained for. Together, they must discover the truth behind the cabin in the woods.

58749496f052438d817012de943f6bcb.mkv (2.0 GB)
58749496f052438d817012de943f6bcb(1).mkv (2.0 GB)



General
Complete name : ./58749496f052438d817012de943f6bcb.mkv
Format : Matroska
Format version : Version 2
File size : 1.96 GiB
Duration : 1 h 34 min
Overall bit rate : 2 955 kb/s
Encoded date : UTC 2018-02-10 21:59:25
Writing application : DVDFab 10.0.8.1
Writing library : libebml v1.3.4 + libmatroska v1.4.5

Video
ID : 1
Format : HEVC
Format/Info : High Efficiency Video Coding
Format profile : Main 10@L4@Main
Codec ID : V_MPEGH/ISO/HEVC
Duration : 1 h 34 min
Bit rate : 2 505 kb/s
Width : 1 920 pixels
Height : 800 pixels
Display aspect ratio : 2.40:1
Frame rate mode : Constant
Frame rate : 24.000 FPS
Color space : YUV
Chroma subsampling : 4:2:0
Bit depth : 10 bits
Bits/(Pixel*Frame) : 0.068
Stream size : 1.66 GiB (85%)
Default : Yes
Forced : No
Color range : Limited
Color primaries : BT.709
Transfer characteristics : BT.709
Matrix coefficients : BT.709

Audio
ID : 2
Format : AC-3
Format/Info : Audio Coding 3
Format settings, Endianness : Big
Codec ID : A_AC3
Duration : 1 h 34 min
Bit rate mode : Constant
Bit rate : 448 kb/s
Channel(s) : 6 channels
Channel positions : Front: L C R, Side: L R, LFE
Sampling rate : 48.0 kHz
Frame rate : 31.250 FPS (1536 SPF)
Bit depth : 16 bits
Compression mode : Lossy
Stream size : 304 MiB (15%)
Language : English
Service kind : Complete Main
Default : Yes
Forced : No

Menu
00:00:00.000 : en:(01)00:00:00:000
00:07:07.416 : en:(02)00:07:07:416
00:12:38.125 : en:(03)00:12:38:125
00:18:43.208 : en:(04)00:18:43:208
00:24:20.875 : en:(05)00:24:20:875
00:30:36.041 : en:(06)00:30:36:041
00:35:00.375 : en:(07)00:35:00:375
00:43:14.791 : en:(08)00:43:14:791
00:48:01.416 : en:(09)00:48:01:416
00:54:29.625 : en:(10)00:54:29:625
01:00:13.458 : en:(11)01:00:13:458
01:06:44.958 : en:(12)01:06:44:958
01:12:07.375 : en:(13)01:12:07:375
01:16:41.208 : en:(14)01:16:41:208
01:23:36.125 : en:(15)01:23:36:125
01:29:50.166 : en:(16)01:29:50:166





The Cabin in the Woods (2012)


The Cabin in the Woods (2012)


The Cabin in the Woods (2012)


The Cabin in the Woods (2012)


The Cabin in the Woods (2012)