Tags
Language
Tags

The Cell (2000)

Posted By: Tavaz
1080p (FullHD) / BDRip IMDb
The Cell (2000)

The Cell (2000)
BDRip | MKV | 1920x800 | English | H265 @ 2223 kbps | AC-3 @ 448 kbps | 1 h 49 min | 2.04 GiB
Subtitles: English
Genre: Horror, Sci-Fi, Thriller

A psychotherapist journeys inside a comatose serial killer in the hopes of saving his latest victim.

6aa111b0bf474addbadf9a8144f2d93e.mkv (2.0 GB)



General
Unique ID : 241210123932041314263154123690927813364 (0xB577614B6A81A79CB78BD18E5A3572F4)
Complete name : ./6aa111b0bf474addbadf9a8144f2d93e.mkv
Format : Matroska
Format version : Version 2
File size : 2.04 GiB
Duration : 1 h 49 min
Overall bit rate : 2 680 kb/s
Movie name : The Cell 2000 BluRay 10Bit 1080p DD5.1 H265-d3g
Encoded date : UTC 2018-01-17 00:18:14
Writing application : DVDFab 10.0.7.7
Writing library : libebml v1.3.4 + libmatroska v1.4.5

Video
ID : 1
Format : HEVC
Format/Info : High Efficiency Video Coding
Format profile : Main 10@L4@Main
Codec ID : V_MPEGH/ISO/HEVC
Duration : 1 h 49 min
Bit rate : 2 223 kb/s
Width : 1 920 pixels
Height : 800 pixels
Display aspect ratio : 2.40:1
Frame rate mode : Constant
Frame rate : 23.976 (24000/1001) FPS
Color space : YUV
Chroma subsampling : 4:2:0
Bit depth : 10 bits
Bits/(Pixel*Frame) : 0.060
Stream size : 1.70 GiB (83%)
Default : Yes
Forced : No
Color range : Limited
Color primaries : BT.709
Transfer characteristics : BT.709
Matrix coefficients : BT.709

Audio
ID : 2
Format : AC-3
Format/Info : Audio Coding 3
Format settings, Endianness : Big
Codec ID : A_AC3
Duration : 1 h 49 min
Bit rate mode : Constant
Bit rate : 448 kb/s
Channel(s) : 6 channels
Channel positions : Front: L C R, Side: L R, LFE
Sampling rate : 48.0 kHz
Frame rate : 31.250 FPS (1536 SPF)
Bit depth : 16 bits
Compression mode : Lossy
Stream size : 350 MiB (17%)
Language : English
Service kind : Complete Main
Default : Yes
Forced : No

Text
ID : 3
Format : VobSub
Codec ID : S_VOBSUB
Codec ID/Info : Picture based subtitle format used on DVDs
Duration : 1 h 47 min
Bit rate : 6 887 b/s
Count of elements : 975
Stream size : 5.31 MiB (0%)
Language : English
Default : No
Forced : No

Menu
00:00:00.000 : en:(01)00:00:00:000
00:06:40.900 : en:(02)00:06:40:900
00:08:18.706 : en:(03)00:08:18:706
00:10:24.206 : en:(04)00:10:24:206
00:12:17.153 : en:(05)00:12:17:153
00:18:13.842 : en:(06)00:18:13:842
00:21:13.605 : en:(07)00:21:13:605
00:22:57.918 : en:(08)00:22:57:918
00:24:26.006 : en:(09)00:24:26:006
00:27:32.400 : en:(10)00:27:32:400
00:34:11.174 : en:(11)00:34:11:174
00:39:47.259 : en:(12)00:39:47:259
00:49:55.200 : en:(13)00:49:55:200
00:52:12.504 : en:(14)00:52:12:504
00:58:04.022 : en:(15)00:58:04:022
01:10:37.233 : en:(16)01:10:37:233
01:11:55.936 : en:(17)01:11:55:936
01:24:16.509 : en:(18)01:24:16:509
01:28:09.284 : en:(19)01:28:09:284
01:32:32.922 : en:(20)01:32:32:922
01:40:29.231 : en:(21)01:40:29:231
01:44:32.099 : en:(22)01:44:32:099
01:49:11.836 : en:(23)01:49:11:836





The Cell (2000)


The Cell (2000)


The Cell (2000)


The Cell (2000)


The Cell (2000)