Tags
Language
Tags

La Double Vie de Samantha (2010)

Posted By: Tavaz
720p (HD) / WEBRip IMDb
La Double Vie de Samantha (2010)

La Double Vie de Samantha (2010)
WEBRip | MKV | 1280x720 | French | H264 @ 2740 kbps | AC-3 @ 384 kbps | 1 h 28 min | 1.91 GiB
Subtitles: French, English
Genre: Drame

Samantha « Sam » Horton, une ancienne reine de beauté du Texas, mère de trois enfants, et massothérapeute au chômage avec des difficultés financières et la menace de forclusion sur sa maison. Son mari, Rex, un ancien joueur de football, souffre de complications au genou et ne peut pas travailler. Elle postule pour un emploi à un salon de massage dans une ville voisine et est rapidement embauchée. Cependant, elle découvre que les masseuses qui y travaillent sont en fait des prostituées au service des membres éminents de la société. À court d'argent, Sam se rend compte qu'il n'y a pas d'autres options et décide d'accepter de devenir une prostituée. Elle commence à travailler sous le nom de « Brandy », ment à son mari et sa mère afin de leur cacher la nature réelle de son travail. Sam rapporte beaucoup d'argent. Cependant, en plus de l'argent, ses clients lui donnent des bijoux de luxe et certains l'ont même demandée en mariage.

the.client.list.2010.french.720p.web.x264-cielos.mkv (1.9 GB)



General
Unique ID : 230136613781185397271409984512988633824 (0xAD22B3178D007CC7BA84BBEADE155AE0)
Complete name : ./the.client.list.2010.french.720p.web.x264-cielos.mkv
Format : Matroska
Format version : Version 4 / Version 2
File size : 1.91 GiB
Duration : 1 h 28 min
Overall bit rate mode : Variable
Overall bit rate : 3 094 kb/s
Encoded date : UTC 2017-11-10 07:12:08
Writing application : mkvmerge v17.0.0 ('Be Ur Friend') 64-bit
Writing library : libebml v1.3.5 + libmatroska v1.4.8

Video
ID : 1
Format : AVC
Format/Info : Advanced Video Codec
Format profile : Main@L3.1
Format settings : CABAC / 3 Ref Frames
Format settings, CABAC : Yes
Format settings, RefFrames : 3 frames
Codec ID : V_MPEG4/ISO/AVC
Duration : 1 h 28 min
Bit rate mode : Variable
Bit rate : 2 740 kb/s
Maximum bit rate : 4 110 kb/s
Width : 1 280 pixels
Height : 720 pixels
Display aspect ratio : 16:9
Frame rate mode : Constant
Frame rate : 23.976 (24000/1001) FPS
Color space : YUV
Chroma subsampling : 4:2:0
Bit depth : 8 bits
Scan type : Progressive
Bits/(Pixel*Frame) : 0.124
Stream size : 1.67 GiB (88%)
Writing library : x264 core 118
Encoding settings : cabac=1 / ref=3 / deblock=1:0:0 / analyse=0x1:0x111 / me=umh / subme=10 / psy=1 / psy_rd=1.00:0.00 / mixed_ref=1 / me_range=24 / chroma_me=1 / trellis=2 / 8x8dct=0 / cqm=0 / deadzone=21,11 / fast_pskip=1 / chroma_qp_offset=-2 / threads=8 / sliced_threads=0 / nr=0 / decimate=1 / interlaced=0 / bluray_compat=0 / constrained_intra=0 / bframes=2 / b_pyramid=0 / b_adapt=2 / b_bias=0 / direct=3 / weightb=1 / open_gop=0 / weightp=2 / keyint=48 / keyint_min=25 / scenecut=0 / intra_refresh=0 / rc_lookahead=0 / rc=2pass / mbtree=1 / bitrate=2740 / ratetol=1.0 / qcomp=0.50 / qpmin=6 / qpmax=51 / qpstep=4 / cplxblur=20.0 / qblur=0.5 / vbv_maxrate=4110 / vbv_bufsize=5480 / nal_hrd=vbr / ip_ratio=1.40 / aq=1:1.00
Default : Yes
Forced : No

Audio
ID : 2
Format : AC-3
Format/Info : Audio Coding 3
Format settings, Endianness : Big
Codec ID : A_AC3
Duration : 1 h 28 min
Bit rate mode : Constant
Bit rate : 384 kb/s
Channel(s) : 6 channels
Channel positions : Front: L C R, Side: L R, LFE
Sampling rate : 48.0 kHz
Frame rate : 31.250 FPS (1536 SPF)
Bit depth : 16 bits
Compression mode : Lossy
Stream size : 243 MiB (12%)
Title : French
Language : French
Service kind : Complete Main
Default : Yes
Forced : No

Text #1
ID : 3
Format : UTF-8
Codec ID : S_TEXT/UTF8
Codec ID/Info : UTF-8 Plain Text
Duration : 1 h 27 min
Bit rate : 73 b/s
Count of elements : 1379
Stream size : 47.3 KiB (0%)
Title : French
Language : French
Default : No
Forced : No

Text #2
ID : 4
Format : UTF-8
Codec ID : S_TEXT/UTF8
Codec ID/Info : UTF-8 Plain Text
Duration : 1 h 26 min
Bit rate : 78 b/s
Count of elements : 1378
Stream size : 49.8 KiB (0%)
Title : English
Language : English
Default : No
Forced : No





La Double Vie de Samantha (2010)


La Double Vie de Samantha (2010)


La Double Vie de Samantha (2010)


La Double Vie de Samantha (2010)


La Double Vie de Samantha (2010)