Tags
Language
Tags

The Competition (2018)

Posted By: Tavaz
1080p (FullHD) / BDRip IMDb
The Competition (2018)

The Competition (2018)
BDRip | MKV | 1920x802 | English | H264 @ 14105 kbps | DTS @ 1509 kbps | 1 h 43 min | 11.3 GiB
Genre: Comedy, Romance

A romantic comedy about a woman who thinks all people eventually cheat and a man who challenges her to a competition to prove that she's wrong.

cad8839e9ea94aa2a14a4a6df765a60a.mkv (11.3 GB)



General
Complete name : ./cad8839e9ea94aa2a14a4a6df765a60a.mkv
Format : Matroska
Format version : Version 4 / Version 2
File size : 11.3 GiB
Duration : 1 h 43 min
Overall bit rate : 15.6 Mb/s
Encoded date : UTC 2018-03-22 19:48:33
Writing application : mkvmerge v21.0.0 ('Tardigrades Will Inherit The Earth') 64-bit
Writing library : libebml v1.3.5 + libmatroska v1.4.8
Cover : Yes
Attachments : cover_land.jpg / small_cover.jpg / small_cover_land.jpg / cover.jpg

Video
ID : 1
Format : AVC
Format/Info : Advanced Video Codec
Format profile : High@L4.1
Format settings : CABAC / 5 Ref Frames
Format settings, CABAC : Yes
Format settings, RefFrames : 5 frames
Codec ID : V_MPEG4/ISO/AVC
Duration : 1 h 43 min
Bit rate : 14.1 Mb/s
Width : 1 920 pixels
Height : 802 pixels
Display aspect ratio : 2.40:1
Frame rate mode : Constant
Frame rate : 23.976 (24000/1001) FPS
Color space : YUV
Chroma subsampling : 4:2:0
Bit depth : 8 bits
Scan type : Progressive
Bits/(Pixel*Frame) : 0.382
Stream size : 10.2 GiB (90%)
Title : The.Competition.2018.1080p.BluRay.x264.DTS-MT
Language : English
Default : Yes
Forced : No

Audio
ID : 2
Format : DTS
Format/Info : Digital Theater Systems
Mode : 16
Format settings, Endianness : Big
Codec ID : A_DTS
Duration : 1 h 43 min
Bit rate mode : Constant
Bit rate : 1 509 kb/s
Channel(s) : 6 channels
Channel positions : Front: L C R, Side: L R, LFE
Sampling rate : 48.0 kHz
Frame rate : 93.750 FPS (512 SPF)
Bit depth : 24 bits
Compression mode : Lossy
Stream size : 1.09 GiB (10%)
Title : The.Competition.2018.1080p.BluRay.x264.DTS-MT
Language : English
Default : Yes
Forced : No





The Competition (2018)


The Competition (2018)


The Competition (2018)


The Competition (2018)


The Competition (2018)