Tags
Language
Tags

Wallace & Gromit: The Curse of the Were-Rabbit (2005)

Posted By:
1080p (FullHD) / BDRip IMDb
Wallace & Gromit: The Curse of the Were-Rabbit (2005)

Wallace & Gromit: The Curse of the Were-Rabbit (2005)
BDRip | MKV | 1920x1040 | English | H264 @ 13218 kbps | DTS @ 1509 kbps | 1 h 24 min | 8.74 GiB
Subtitles: English
Genre: Adventure, Animation, Comedy, Family

Cheese-loving eccentric Wallace and his cunning canine pal, Gromit, investigate a mystery in Nick Park's animated adventure, in which the lovable inventor and his intrepid pup run a business ridding the town of garden pests. Using only humane methods that turn their home into a halfway house for evicted vermin, the pair stumble upon a mystery involving a voracious vegetarian monster that threatens to ruin the annual veggie-growing contest.

The.Curse.of.the.Were-Rabbit.2005.1080p.BluRay.X264-AMIABLE.part1.rar (4.6 GB)
The.Curse.of.the.Were-Rabbit.2005.1080p.BluRay.X264-AMIABLE.part2.rar (4.2 GB)



General
Unique ID : 0 (0x0)
Complete name : ./5a3ecd4fed3f8272212b7b35442119df.mkv
Format : Matroska
Format version : Version 4 / Version 2
File size : 8.74 GiB
Duration : 1 h 24 min
Overall bit rate : 14.7 Mb/s
Encoded date : UTC 2010-02-22 21:41:29
Writing application : no_variable_data
Writing library : no_variable_data

Video
ID : 1
Format : AVC
Format/Info : Advanced Video Codec
Format profile : High@L4.1
Format settings : CABAC / 4 Ref Frames
Format settings, CABAC : Yes
Format settings, RefFrames : 4 frames
Codec ID : V_MPEG4/ISO/AVC
Duration : 1 h 24 min
Bit rate : 13.2 Mb/s
Width : 1 920 pixels
Height : 1 040 pixels
Display aspect ratio : 1.85:1
Frame rate mode : Constant
Frame rate : 23.976 (24000/1001) FPS
Color space : YUV
Chroma subsampling : 4:2:0
Bit depth : 8 bits
Scan type : Progressive
Bits/(Pixel*Frame) : 0.276
Stream size : 7.67 GiB (88%)
Writing library : x264 core 157 r2935 545de2f
Encoding settings : cabac=1 / ref=4 / deblock=1:-3:-3 / analyse=0x3:0x113 / me=umh / subme=8 / psy=1 / psy_rd=1.10:0.00 / mixed_ref=1 / me_range=32 / chroma_me=1 / trellis=2 / 8x8dct=1 / cqm=0 / deadzone=21,11 / fast_pskip=1 / chroma_qp_offset=-2 / threads=32 / lookahead_threads=5 / sliced_threads=0 / nr=0 / decimate=1 / interlaced=0 / bluray_compat=0 / constrained_intra=0 / bframes=3 / b_pyramid=2 / b_adapt=2 / b_bias=0 / direct=3 / weightb=1 / open_gop=0 / weightp=2 / keyint=240 / keyint_min=24 / scenecut=40 / intra_refresh=0 / rc_lookahead=50 / rc=2pass / mbtree=1 / bitrate=13218 / ratetol=1.0 / qcomp=0.60 / qpmin=0 / qpmax=69 / qpstep=4 / cplxblur=20.0 / qblur=0.5 / ip_ratio=1.40 / aq=3:0.70
Default : Yes
Forced : No
Statistics Tags Issue : no_variable_data 1970-01-01 00:00:00 / no_variable_data 2010-02-22 21:41:29
FromStats_BitRate : 13212368
FromStats_Duration : 01:24:59.720000000
FromStats_FrameCount : 122271
FromStats_StreamSize : 8422422332

Audio
ID : 2
Format : DTS
Format/Info : Digital Theater Systems
Mode : 16
Format settings, Endianness : Big
Codec ID : A_DTS
Duration : 1 h 24 min
Bit rate mode : Constant
Bit rate : 1 509 kb/s
Channel(s) : 6 channels
Channel positions : Front: L C R, Side: L R, LFE
Sampling rate : 48.0 kHz
Frame rate : 93.750 FPS (512 SPF)
Bit depth : 24 bits
Compression mode : Lossy
Stream size : 917 MiB (10%)
Language : English
Default : Yes
Forced : No
Statistics Tags Issue : no_variable_data 1970-01-01 00:00:00 / no_variable_data 2010-02-22 21:41:29
FromStats_BitRate : 1508999
FromStats_Duration : 01:24:59.723000000
FromStats_FrameCount : 478099
FromStats_StreamSize : 961935188

Text #1
ID : 3
Format : UTF-8
Codec ID : S_TEXT/UTF8
Codec ID/Info : UTF-8 Plain Text
Language : English
Default : No
Forced : No
Statistics Tags Issue : no_variable_data 1970-01-01 00:00:00 / no_variable_data 2010-02-22 21:41:29
FromStats_BitRate : 38
FromStats_Duration : 01:19:27.763000000
FromStats_FrameCount : 836
FromStats_StreamSize : 23130

Text #2
ID : 4
Format : UTF-8
Codec ID : S_TEXT/UTF8
Codec ID/Info : UTF-8 Plain Text
Title : SDH
Language : English
Default : No
Forced : No
Statistics Tags Issue : no_variable_data 1970-01-01 00:00:00 / no_variable_data 2010-02-22 21:41:29
FromStats_BitRate : 46
FromStats_Duration : 01:23:46.521000000
FromStats_FrameCount : 1185
FromStats_StreamSize : 29491

Menu
00:00:00.000 : en:Chapter 01
00:06:47.073 : en:Chapter 02
00:11:35.653 : en:Chapter 03
00:18:05.459 : en:Chapter 04
00:21:39.715 : en:Chapter 05
00:25:48.630 : en:Chapter 06
00:30:31.079 : en:Chapter 07
00:35:26.875 : en:Chapter 08
00:39:55.476 : en:Chapter 09
00:43:28.022 : en:Chapter 10
00:49:46.483 : en:Chapter 11
00:53:05.557 : en:Chapter 12
00:58:08.443 : en:Chapter 13
01:01:18.425 : en:Chapter 14
01:04:14.309 : en:Chapter 15
01:08:40.074 : en:Chapter 16
01:14:51.278 : en:Chapter 17
01:18:58.567 : en:Chapter 18





Wallace & Gromit: The Curse of the Were-Rabbit (2005)


Wallace & Gromit: The Curse of the Were-Rabbit (2005)


Wallace & Gromit: The Curse of the Were-Rabbit (2005)


Wallace & Gromit: The Curse of the Were-Rabbit (2005)


Wallace & Gromit: The Curse of the Were-Rabbit (2005)