Tags
Language
Tags

The Dark Knight (2008)

Posted By: Tavaz
720p (HD) / BDRip IMDb
The Dark Knight (2008)

The Dark Knight (2008)
BDRip | MKV | 1280x720 | English | H264 @ 6551 kbps | AC-3 @ 640 kbps | 2 h 32 min | 7.66 GiB
Subtitles: English
Genre: Action, Crime, Drama

Batman raises the stakes in his war on crime. With the help of Lt. Jim Gordon and District Attorney Harvey Dent, Batman sets out to dismantle the remaining criminal organizations that plague the streets. The partnership proves to be effective, but they soon find themselves prey to a reign of chaos unleashed by a rising criminal mastermind known to the terrified citizens of Gotham as the Joker.

The.Dark.Knight.2008.720p.BluRay.x264-DJ.mkv (7.7 GB)



General
Unique ID : 219387294315429027288396114363685626764 (0xA50C74B9670BF2F8A5F448E0D249638C)
Complete name : ./The.Dark.Knight.2008.720p.BluRay.x264-DJ.mkv
Format : Matroska
Format version : Version 2
File size : 7.66 GiB
Duration : 2 h 32 min
Overall bit rate : 7 207 kb/s
Encoded date : UTC 2017-10-04 16:27:48
Writing application : mkvmerge v10.0.0 ('To Drown In You') 64bit
Writing library : libebml v1.3.4 + libmatroska v1.4.5

Video
ID : 1
Format : AVC
Format/Info : Advanced Video Codec
Format profile : High@L3.1
Format settings : CABAC / 4 Ref Frames
Format settings, CABAC : Yes
Format settings, RefFrames : 4 frames
Codec ID : V_MPEG4/ISO/AVC
Duration : 2 h 32 min
Bit rate : 6 551 kb/s
Width : 1 280 pixels
Height : 720 pixels
Display aspect ratio : 16:9
Frame rate mode : Constant
Frame rate : 23.976 (24000/1001) FPS
Color space : YUV
Chroma subsampling : 4:2:0
Bit depth : 8 bits
Scan type : Progressive
Bits/(Pixel*Frame) : 0.296
Stream size : 6.96 GiB (91%)
Writing library : x264 core 148 r2744 b97ae06
Encoding settings : cabac=1 / ref=3 / deblock=1:0:0 / analyse=0x3:0x113 / me=hex / subme=7 / psy=1 / psy_rd=1.00:0.00 / mixed_ref=1 / me_range=16 / chroma_me=1 / trellis=1 / 8x8dct=1 / cqm=0 / deadzone=21,11 / fast_pskip=1 / chroma_qp_offset=-2 / threads=6 / lookahead_threads=1 / sliced_threads=0 / nr=0 / decimate=1 / interlaced=0 / bluray_compat=0 / constrained_intra=0 / bframes=3 / b_pyramid=2 / b_adapt=1 / b_bias=0 / direct=1 / weightb=1 / open_gop=0 / weightp=2 / keyint=240 / keyint_min=23 / scenecut=40 / intra_refresh=0 / rc_lookahead=40 / rc=2pass / mbtree=1 / bitrate=6551 / ratetol=1.0 / qcomp=0.60 / qpmin=0 / qpmax=69 / qpstep=4 / cplxblur=20.0 / qblur=0.5 / ip_ratio=1.40 / aq=1:1.00
Default : Yes
Forced : No

Audio
ID : 2
Format : AC-3
Format/Info : Audio Coding 3
Format settings, Endianness : Big
Codec ID : A_AC3
Duration : 2 h 32 min
Bit rate mode : Constant
Bit rate : 640 kb/s
Channel(s) : 6 channels
Channel positions : Front: L C R, Side: L R, LFE
Sampling rate : 48.0 kHz
Frame rate : 31.250 FPS (1536 SPF)
Bit depth : 16 bits
Compression mode : Lossy
Stream size : 697 MiB (9%)
Language : English
Service kind : Complete Main
Default : Yes
Forced : No

Text
ID : 3
Format : PGS
Muxing mode : zlib
Codec ID : S_HDMV/PGS
Codec ID/Info : Picture based subtitle format used on BDs/HD-DVDs
Duration : 2 h 30 min
Bit rate : 16.0 kb/s
Count of elements : 4020
Stream size : 17.3 MiB (0%)
Language : English
Default : Yes
Forced : No

Menu
00:00:00.000 : en:00:00:00.000
00:06:23.967 : en:00:06:23.967
00:10:36.261 : en:00:10:36.261
00:13:52.582 : en:00:13:52.582
00:17:54.198 : en:00:17:54.198
00:21:39.340 : en:00:21:39.340
00:26:10.027 : en:00:26:10.027
00:29:36.274 : en:00:29:36.274
00:31:42.484 : en:00:31:42.484
00:37:49.058 : en:00:37:49.058
00:43:34.070 : en:00:43:34.070
00:46:39.547 : en:00:46:39.547
00:48:57.768 : en:00:48:57.768
00:53:19.446 : en:00:53:19.446
00:57:15.641 : en:00:57:15.641
00:59:26.354 : en:00:59:26.354
01:03:59.627 : en:01:03:59.627
01:08:23.558 : en:01:08:23.558
01:10:48.327 : en:01:10:48.327
01:14:24.919 : en:01:14:24.919
01:18:05.639 : en:01:18:05.639
01:22:22.437 : en:01:22:22.437
01:24:48.583 : en:01:24:48.583
01:30:48.443 : en:01:30:48.443
01:34:04.973 : en:01:34:04.973
01:39:57.783 : en:01:39:57.783
01:42:05.494 : en:01:42:05.494
01:44:59.919 : en:01:44:59.919
01:47:00.873 : en:01:47:00.873
01:51:09.913 : en:01:51:09.913
01:54:14.639 : en:01:54:14.639
01:57:04.017 : en:01:57:04.017
02:00:14.249 : en:02:00:14.249
02:03:37.577 : en:02:03:37.577
02:09:07.615 : en:02:09:07.615
02:12:27.314 : en:02:12:27.314
02:15:22.781 : en:02:15:22.781
02:19:58.682 : en:02:19:58.682
02:24:26.658 : en:02:24:26.658





The Dark Knight (2008)


The Dark Knight (2008)


The Dark Knight (2008)


The Dark Knight (2008)


The Dark Knight (2008)