Tags
Language
Tags

The Dark Knight (2008)

Posted By: Tavaz
1080p (FullHD) / BDRip IMDb
The Dark Knight (2008)

The Dark Knight (2008)
BDRip | MOV | 1920x1080 | English | H264 @ 3270 kbps | AC-3 @ 448 kbps | 2 h 32 min | 3.97 GiB
Subtitles: English
Genre: Action, Crime, Drama, Thriller

Batman raises the stakes in his war on crime. With the help of Lt. Jim Gordon and District Attorney Harvey Dent, Batman sets out to dismantle the remaining criminal organizations that plague the streets. The partnership proves to be effective, but they soon find themselves prey to a reign of chaos unleashed by a rising criminal mastermind known to the terrified citizens of Gotham as the Joker.

bca432a88c9e1e62512204ac1eefa7cd.mp4 (4.0 GB)



General
Complete name : ./bca432a88c9e1e62512204ac1eefa7cd.mp4
Format : MPEG-4
Format profile : Base Media / Version 2
Codec ID : mp42 (mp42/isom/avc1)
File size : 3.97 GiB
Duration : 2 h 32 min
Overall bit rate mode : Variable
Overall bit rate : 3 731 kb/s
Movie name : The.Dark.Knight.2008.1080p.BluRay.H264.AC3.DD5.1
Encoded date : UTC 2020-05-18 02:26:32
Tagged date : UTC 2020-05-18 02:41:41
Writing application : DVDFab 11.0.4.2
Cover : Yes

Video
ID : 1
Format : AVC
Format/Info : Advanced Video Codec
Format profile : Main@L4
Format settings : CABAC / 2 Ref Frames
Format settings, CABAC : Yes
Format settings, RefFrames : 2 frames
Format settings, GOP : M=1, N=24
Codec ID : avc1
Codec ID/Info : Advanced Video Coding
Duration : 2 h 32 min
Bit rate mode : Variable
Bit rate : 3 271 kb/s
Maximum bit rate : 5 071 kb/s
Width : 1 920 pixels
Height : 1 080 pixels
Display aspect ratio : 16:9
Frame rate mode : Constant
Frame rate : 23.976 (24000/1001) FPS
Color space : YUV
Chroma subsampling : 4:2:0
Bit depth : 8 bits
Scan type : Progressive
Bits/(Pixel*Frame) : 0.066
Stream size : 3.48 GiB (88%)
Encoded date : UTC 2020-05-18 02:26:32
Tagged date : UTC 2020-05-18 02:41:41
Color primaries : BT.709
Transfer characteristics : BT.709
Matrix coefficients : BT.709

Audio
ID : 2
Format : AC-3
Format/Info : Audio Coding 3
Format settings, Endianness : Big
Codec ID : ac-3
Duration : 2 h 32 min
Bit rate mode : Constant
Bit rate : 448 kb/s
Channel(s) : 6 channels
Channel positions : Front: L C R, Side: L R, LFE
Sampling rate : 48.0 kHz
Frame rate : 31.250 FPS (1536 SPF)
Bit depth : 16 bits
Compression mode : Lossy
Stream size : 488 MiB (12%)
Title : English (ac3 5.1)
Language : English
Service kind : Complete Main
Default : Yes
Alternate group : 1
Encoded date : UTC 2020-05-18 02:26:32
Tagged date : UTC 2020-05-18 02:41:41

Text
ID : 3
Format : VobSub
Codec ID : mp4s-E0
Codec ID/Info : The same subtitle format used on DVDs
Duration : 2 h 24 min
Bit rate mode : Variable
Bit rate : 10.8 kb/s
Maximum bit rate : 4 118 Mb/s
Stream size : 11.2 MiB (0%)
Language : English
Default : Yes
Forced : No
Alternate group : 2
Encoded date : UTC 2020-05-18 02:26:32
Tagged date : UTC 2020-05-18 02:41:00





The Dark Knight (2008)


The Dark Knight (2008)


The Dark Knight (2008)


The Dark Knight (2008)


The Dark Knight (2008)