Tags
Language
Tags

The Dark Knight (2008)

Posted By: Tavaz
1080p (FullHD) / BDRip IMDb
The Dark Knight (2008)

The Dark Knight (2008)
BDRip | MKV | 1920x1080 | English | H265 @ 4388 kbps | AC-3 @ 640 kbps | 2 h 32 min | 5.46 GiB
Subtitles: Español, Français, English
Genre: Drama, Action, Crime, Thriller

Batman raises the stakes in his war on crime. With the help of Lt. Jim Gordon and District Attorney Harvey Dent, Batman sets out to dismantle the remaining criminal organizations that plague the streets. The partnership proves to be effective, but they soon find themselves prey to a reign of chaos unleashed by a rising criminal mastermind known to the terrified citizens of Gotham as the Joker.

The.Dark.Knight.2008.IMAX.1080p.BluRay.10Bit.X265.DD.5.1-Chivaman.mkv (5.5 GB)



General
Unique ID : 81400873165520175373211988289248625106 (0x3D3D3CE7DBAE4AA52B76F1B4B94901D2)
Complete name : ./The.Dark.Knight.2008.IMAX.1080p.BluRay.10Bit.X265.DD.5.1-Chivaman.mkv
Format : Matroska
Format version : Version 4 / Version 2
File size : 5.46 GiB
Duration : 2 h 32 min
Overall bit rate : 5 130 kb/s
Encoded date : UTC 2021-08-25 18:16:05
Writing application : HandBrake 20201206213608-436cc757f-master 2020120601
Writing library : Lavf58.45.100
ErrorDetectionType : Per level 1

Video
ID : 1
Format : HEVC
Format/Info : High Efficiency Video Coding
Format profile : Main 10@L4@Main
Codec ID : V_MPEGH/ISO/HEVC
Duration : 2 h 32 min
Bit rate : 4 388 kb/s
Width : 1 920 pixels
Height : 1 080 pixels
Display aspect ratio : 16:9
Frame rate mode : Constant
Frame rate : 23.976 (24000/1001) FPS
Color space : YUV
Chroma subsampling : 4:2:0
Bit depth : 10 bits
Bits/(Pixel*Frame) : 0.088
Stream size : 4.67 GiB (86%)
Writing library : x265 3.2.1+1-b5c86a64bbbe:[Windows][GCC 9.2.0][64 bit] 10bit
Encoding settings : cpuid=1111039 / frame-threads=4 / numa-pools=24 / wpp / no-pmode / no-pme / no-psnr / no-ssim / log-level=2 / input-csp=1 / input-res=1920x1080 / interlace=0 / total-frames=0 / level-idc=0 / high-tier=1 / uhd-bd=0 / ref=4 / no-allow-non-conformance / no-repeat-headers / annexb / no-aud / no-hrd / info / hash=0 / no-temporal-layers / open-gop / min-keyint=24 / keyint=240 / gop-lookahead=0 / bframes=4 / b-adapt=2 / b-pyramid / bframe-bias=0 / rc-lookahead=25 / lookahead-slices=6 / scenecut=40 / radl=0 / no-splice / no-intra-refresh / ctu=32 / min-cu-size=8 / no-rect / no-amp / max-tu-size=32 / tu-inter-depth=1 / tu-intra-depth=1 / limit-tu=0 / rdoq-level=1 / dynamic-rd=0.00 / no-ssim-rd / signhide / no-tskip / nr-intra=0 / nr-inter=0 / no-constrained-intra / no-strong-intra-smoothing / max-merge=3 / limit-refs=1 / no-limit-modes / me=1 / subme=2 / merange=48 / temporal-mvp / no-hme / weightp / no-weightb / no-analyze-src-pics / deblock=-2:-2 / no-sao / no-sao-non-deblock / rd=3 / selective-sao=0 / no-early-skip / rskip / no-fast-intra / no-tskip-fast / no-cu-lossless / b-intra / no-splitrd-skip / rdpenalty=0 / psy-rd=2.00 / psy-rdoq=3.00 / no-rd-refine / no-lossless / cbqpoffs=0 / crqpoffs=0 / rc=crf / crf=19.0 / qcomp=0.60 / qpstep=4 / stats-write=0 / stats-read=0 / vbv-maxrate=4600 / vbv-bufsize=11000 / vbv-init=0.9 / crf-max=0.0 / crf-min=0.0 / ipratio=1.40 / pbratio=1.30 / aq-mode=3 / aq-strength=1.00 / cutree / zone-count=0 / no-strict-cbr / qg-size=32 / no-rc-grain / qpmax=69 / qpmin=0 / no-const-vbv / sar=1 / overscan=0 / videoformat=5 / range=0 / colorprim=1 / transfer=1 / colormatrix=1 / chromaloc=0 / display-window=0 / cll=0,0 / min-luma=0 / max-luma=1023 / log2-max-poc-lsb=8 / vui-timing-info / vui-hrd-info / slices=1 / no-opt-qp-pps / no-opt-ref-list-length-pps / no-multi-pass-opt-rps / scenecut-bias=0.05 / no-opt-cu-delta-qp / no-aq-motion / no-hdr / no-hdr-opt / no-dhdr10-opt / no-idr-recovery-sei / analysis-reuse-level=5 / scale-factor=0 / refine-intra=0 / refine-inter=0 / refine-mv=1 / refine-ctu-distortion=0 / no-limit-sao / ctu-info=0 / no-lowpass-dct / refine-analysis-type=0 / copy-pic=1 / max-ausize-factor=1.0 / no-dynamic-refine / no-single-sei / no-hevc-aq / no-svt / no-field / qp-adaptation-range=1.00
Default : Yes
Forced : No
Color range : Limited
Color primaries : BT.709
Transfer characteristics : BT.709
Matrix coefficients : BT.709

Audio
ID : 2
Format : AC-3
Format/Info : Audio Coding 3
Format settings, Endianness : Big
Codec ID : A_AC3
Duration : 2 h 32 min
Bit rate mode : Constant
Bit rate : 640 kb/s
Channel(s) : 6 channels
Channel positions : Front: L C R, Side: L R, LFE
Sampling rate : 48.0 kHz
Frame rate : 31.250 FPS (1536 SPF)
Bit depth : 16 bits
Compression mode : Lossy
Delay relative to video : -5 ms
Stream size : 697 MiB (12%)
Title : Dolby Digital 5.1
Language : English
Service kind : Complete Main
Default : Yes
Forced : No

Text #1
ID : 3
Format : PGS
Codec ID : S_HDMV/PGS
Codec ID/Info : Picture based subtitle format used on BDs/HD-DVDs
Duration : 2 h 32 min
Language : English
Default : Yes
Forced : No

Text #2
ID : 4
Format : PGS
Codec ID : S_HDMV/PGS
Codec ID/Info : Picture based subtitle format used on BDs/HD-DVDs
Duration : 2 h 32 min
Language : French
Default : No
Forced : No

Text #3
ID : 5
Format : PGS
Codec ID : S_HDMV/PGS
Codec ID/Info : Picture based subtitle format used on BDs/HD-DVDs
Duration : 2 h 32 min
Language : Spanish
Default : No
Forced : No

Menu
00:00:00.000 : :Chapter 1
00:06:23.967 : :Chapter 2
00:10:36.261 : :Chapter 3
00:13:52.582 : :Chapter 4
00:17:54.198 : :Chapter 5
00:21:39.340 : :Chapter 6
00:26:10.027 : :Chapter 7
00:29:36.275 : :Chapter 8
00:31:42.484 : :Chapter 9
00:37:49.058 : :Chapter 10
00:43:34.070 : :Chapter 11
00:46:39.547 : :Chapter 12
00:48:57.768 : :Chapter 13
00:53:19.446 : :Chapter 14
00:57:15.641 : :Chapter 15
00:59:26.354 : :Chapter 16
01:03:59.627 : :Chapter 17
01:08:23.558 : :Chapter 18
01:10:48.327 : :Chapter 19
01:14:24.919 : :Chapter 20
01:18:05.639 : :Chapter 21
01:22:22.438 : :Chapter 22
01:24:48.584 : :Chapter 23
01:30:48.443 : :Chapter 24
01:34:04.973 : :Chapter 25
01:39:57.783 : :Chapter 26
01:42:05.494 : :Chapter 27
01:44:59.919 : :Chapter 28
01:47:00.873 : :Chapter 29
01:51:09.913 : :Chapter 30
01:54:14.639 : :Chapter 31
01:57:04.017 : :Chapter 32
02:00:14.249 : :Chapter 33
02:03:37.577 : :Chapter 34
02:09:07.615 : :Chapter 35
02:12:27.314 : :Chapter 36
02:15:22.781 : :Chapter 37
02:19:58.682 : :Chapter 38
02:24:26.658 : :Chapter 39





The Dark Knight (2008)


The Dark Knight (2008)


The Dark Knight (2008)


The Dark Knight (2008)


The Dark Knight (2008)