Tags
Language
Tags

The Dark Knight Rises (2012)

Posted By: Tavaz
720p (HD) / BDRip IMDb
The Dark Knight Rises (2012)

The Dark Knight Rises (2012)
BDRip | MKV | 1280x534 | English | H264 @ 2500 kbps | AC-3 @ 448 kbps | 2 h 44 min | 3.37 GiB
Subtitles: English
Genre: Action, Crime, Drama, Thriller

Following the death of District Attorney Harvey Dent, Batman assumes responsibility for Dent's crimes to protect the late attorney's reputation and is subsequently hunted by the Gotham City Police Department. Eight years later, Batman encounters the mysterious Selina Kyle and the villainous Bane, a new terrorist leader who overwhelms Gotham's finest. The Dark Knight resurfaces to protect a city that has branded him an enemy.

9a6eb09feccb447bb166c6a2a6c4c0b6.mkv (3.4 GB)



General
Unique ID : 230352637885272068772148436055116223614 (0xAD4C4DE713591E8E9D8F9D2C8520147E)
Complete name : ./9a6eb09feccb447bb166c6a2a6c4c0b6.mkv
Format : Matroska
Format version : Version 4 / Version 2
File size : 3.37 GiB
Duration : 2 h 44 min
Overall bit rate : 2 936 kb/s
Movie name : RiPRG
Encoded date : UTC 2018-04-30T18:20:53Z
Writing application : HandBrake 1.0.7 2018032200
Writing library : Lavf57.7.2

Video
ID : 1
Format : AVC
Format/Info : Advanced Video Codec
Format profile : High@L4.1
Format settings : CABAC / 4 Ref Frames
Format settings, CABAC : Yes
Format settings, RefFrames : 4 frames
Codec ID : V_MPEG4/ISO/AVC
Duration : 2 h 44 min
Bit rate : 2 500 kb/s
Width : 1 280 pixels
Height : 534 pixels
Display aspect ratio : 2.40:1
Frame rate mode : Constant
Frame rate : 23.976 (24000/1001) FPS
Color space : YUV
Chroma subsampling : 4:2:0
Bit depth : 8 bits
Scan type : Progressive
Bits/(Pixel*Frame) : 0.153
Stream size : 2.79 GiB (83%)
Writing library : x264 core 148
Encoding settings : cabac=1 / ref=1 / deblock=1:0:0 / analyse=0x3:0x113 / me=hex / subme=2 / psy=1 / psy_rd=1.00:0.00 / mixed_ref=0 / me_range=16 / chroma_me=1 / trellis=0 / 8x8dct=1 / cqm=0 / deadzone=21,11 / fast_pskip=1 / chroma_qp_offset=0 / threads=6 / lookahead_threads=2 / sliced_threads=0 / nr=0 / decimate=1 / interlaced=0 / bluray_compat=0 / constrained_intra=0 / bframes=3 / b_pyramid=2 / b_adapt=1 / b_bias=0 / direct=1 / weightb=1 / open_gop=0 / weightp=1 / keyint=240 / keyint_min=24 / scenecut=40 / intra_refresh=0 / rc_lookahead=10 / rc=abr / mbtree=1 / bitrate=2500 / ratetol=1.0 / qcomp=0.60 / qpmin=0 / qpmax=69 / qpstep=4 / vbv_maxrate=62500 / vbv_bufsize=78125 / nal_hrd=none / filler=0 / ip_ratio=1.40 / aq=1:1.00
Default : Yes
Forced : No
Color range : Limited
Color primaries : BT.709
Transfer characteristics : BT.709
Matrix coefficients : BT.709

Audio
ID : 2
Format : AC-3
Format/Info : Audio Coding 3
Format settings, Endianness : Big
Codec ID : A_AC3
Duration : 2 h 44 min
Bit rate mode : Constant
Bit rate : 448 kb/s
Channel(s) : 6 channels
Channel positions : Front: L C R, Side: L R, LFE
Sampling rate : 48.0 kHz
Frame rate : 31.250 FPS (1536 SPF)
Bit depth : 16 bits
Compression mode : Lossy
Delay relative to video : 6 ms
Stream size : 527 MiB (15%)
Title : Surround
Language : English
Service kind : Complete Main
Default : Yes
Forced : No

Text
ID : 3
Format : ASS
Codec ID : S_TEXT/ASS
Codec ID/Info : Advanced Sub Station Alpha
Compression mode : Lossless
Language : English
Default : No
Forced : No

Menu
00:00:00.000 : :00:00:00.000
00:09:02.876 : :00:09:02.834
00:19:08.689 : :00:19:08.522
00:30:16.023 : :00:30:15.856
00:41:08.925 : :00:41:08.800
00:51:09.608 : :00:51:09.525
01:00:29.918 : :01:00:29.668
01:10:04.117 : :01:10:04.033
01:20:13.559 : :01:20:13.475
01:31:00.747 : :01:31:00.580
01:39:24.542 : :01:39:24.292
01:48:58.574 : :01:48:58.490
02:00:21.673 : :02:00:21.589
02:10:47.882 : :02:10:47.673
02:19:12.636 : :02:19:12.636
02:30:14.672 : :02:30:14.631
02:36:50.526 : :02:36:50.526





The Dark Knight Rises (2012)


The Dark Knight Rises (2012)


The Dark Knight Rises (2012)


The Dark Knight Rises (2012)


The Dark Knight Rises (2012)