The Ex-File 3: The Return of the Exes (2017)

Posted By: Tavaz
720p (HD) / BDRip IMDb
The Ex-File 3: The Return of the Exes (2017)

The Ex-File 3: The Return of the Exes (2017)
BDRip | MKV | 1280x538 | English | H264 @ 5460 kbps | AC-3 @ 640 kbps | 1 h 59 min | 5.11 GiB
Subtitles: Chinese
Genre: Comedy, Romance

Buddies Meng Yun and Yu Fei break up with their girlfriends and indulge themselves in living the bachelor lifestyle again. However, as their ex-girlfriends reemerge in their lives, their “Single Plan” starts to unravel!

4f7cf4ab2b5d4968b94cb9dfa3ef5daf.mkv (5.1 GB)



General
Complete name : ./4f7cf4ab2b5d4968b94cb9dfa3ef5daf.mkv
Format : Matroska
Format version : Version 4 / Version 2
File size : 5.11 GiB
Duration : 1 h 59 min
Overall bit rate : 6 127 kb/s
Encoded date : UTC 2018-06-02 12:47:14
Writing application : mkvmerge v23.0.0 ('The Bride Said No') 64-bit
Writing library : libebml v1.3.6 + libmatroska v1.4.9

Video
ID : 1
Format : AVC
Format/Info : Advanced Video Codec
Format profile : High@L4.1
Format settings : CABAC / 9 Ref Frames
Format settings, CABAC : Yes
Format settings, RefFrames : 9 frames
Codec ID : V_MPEG4/ISO/AVC
Duration : 1 h 59 min
Bit rate : 5 460 kb/s
Width : 1 280 pixels
Height : 538 pixels
Display aspect ratio : 2.40:1
Frame rate mode : Constant
Frame rate : 24.000 FPS
Color space : YUV
Chroma subsampling : 4:2:0
Bit depth : 8 bits
Scan type : Progressive
Bits/(Pixel*Frame) : 0.330
Stream size : 4.56 GiB (89%)
Writing library : x264 core 155 r2867+74 66b5600 t_mod_Custom_2 [8-bit@all X86_64]
Encoding settings : cabac=1 / ref=9 / deblock=1:-3:-3 / analyse=0x3:0x113 / me=umh / subme=10 / psy=1 / fade_compensate=0.00 / psy_rd=0.90:0.10 / mixed_ref=1 / me_range=32 / chroma_me=1 / trellis=2 / 8x8dct=1 / cqm=0 / deadzone=21,11 / fast_pskip=0 / chroma_qp_offset=-2 / threads=17 / lookahead_threads=2 / sliced_threads=0 / nr=0 / decimate=1 / interlaced=0 / bluray_compat=0 / constrained_intra=0 / fgo=0 / bframes=8 / b_pyramid=2 / b_adapt=2 / b_bias=0 / direct=3 / weightb=1 / open_gop=0 / weightp=2 / keyint=250 / keyint_min=24 / scenecut=40 / intra_refresh=0 / rc_lookahead=40 / rc=crf / mbtree=0 / crf=18.0000 / qcomp=0.70 / qpmin=0:0:0 / qpmax=69:69:69 / qpstep=4 / vbv_maxrate=30000 / vbv_bufsize=30000 / crf_max=0.0 / nal_hrd=none / filler=0 / ip_ratio=1.40 / pb_ratio=1.30 / aq=3:0.90 / aq-sensitivity=10.00 / aq-factor=1.00:1.00:1.00 / aq2=0 / aq3=2:[0.50:0.50]:[0.50:0.50]:[0.50:0.50]:[0.50:0.50] / aq3-sensitivity=10.00 / aq3-factor=[1.00:1.00]:[1.00:1.00]:[1.00:1.00] / aq3-boundary=192:64:24
Language : English
Default : Yes
Forced : No
Color range : Limited
Matrix coefficients : BT.709

Audio
ID : 2
Format : AC-3
Format/Info : Audio Coding 3
Format settings, Endianness : Big
Codec ID : A_AC3
Duration : 1 h 59 min
Bit rate mode : Constant
Bit rate : 640 kb/s
Channel(s) : 6 channels
Channel positions : Front: L C R, Side: L R, LFE
Sampling rate : 48.0 kHz
Frame rate : 31.250 FPS (1536 SPF)
Bit depth : 16 bits
Compression mode : Lossy
Stream size : 547 MiB (10%)
Language : English
Service kind : Complete Main
Default : Yes
Forced : No

Text #1
ID : 3
Format : PGS
Muxing mode : zlib
Codec ID : S_HDMV/PGS
Codec ID/Info : Picture based subtitle format used on BDs/HD-DVDs
Duration : 1 h 53 min
Bit rate : 33.1 kb/s
Count of elements : 3023
Stream size : 26.9 MiB (1%)
Language : Chinese
Default : Yes
Forced : No

Text #2
ID : 4
Format : PGS
Muxing mode : zlib
Codec ID : S_HDMV/PGS
Codec ID/Info : Picture based subtitle format used on BDs/HD-DVDs
Duration : 1 h 52 min
Bit rate : 34.1 kb/s
Count of elements : 3023
Stream size : 27.5 MiB (1%)
Language : Chinese
Default : No
Forced : No

Menu
00:00:00.000 : en:00:00:00.000
00:04:56.750 : en:00:04:56.750
00:10:58.750 : en:00:10:58.750
00:18:11.625 : en:00:18:11.625
00:24:00.292 : en:00:24:00.292
00:30:12.500 : en:00:30:12.500
00:36:23.833 : en:00:36:23.833
00:41:21.125 : en:00:41:21.125
00:46:02.542 : en:00:46:02.542
00:53:11.792 : en:00:53:11.792
00:58:44.167 : en:00:58:44.167
01:04:42.583 : en:01:04:42.583
01:10:42.208 : en:01:10:42.208
01:18:04.250 : en:01:18:04.250
01:23:07.292 : en:01:23:07.292
01:29:04.500 : en:01:29:04.500
01:37:13.958 : en:01:37:13.958
01:41:44.125 : en:01:41:44.125
01:47:33.875 : en:01:47:33.875
01:54:25.667 : en:01:54:25.667





The Ex-File 3: The Return of the Exes (2017)


The Ex-File 3: The Return of the Exes (2017)


The Ex-File 3: The Return of the Exes (2017)


The Ex-File 3: The Return of the Exes (2017)


The Ex-File 3: The Return of the Exes (2017)