Tags
Language
Tags
May 2024
Su Mo Tu We Th Fr Sa
28 29 30 1 2 3 4
5 6 7 8 9 10 11
12 13 14 15 16 17 18
19 20 21 22 23 24 25
26 27 28 29 30 31 1

The Gene An Intimate History (Part 1) 2020

Posted By: Tavaz
720p (HD) / WEBRip
The Gene An Intimate History (Part 1) 2020

The Gene An Intimate History (Part 1) 2020
WEBRip | MKV | 1280x720 | English | H264 @ 3197 kbps | AAC @ 157 kbps | 1 h 54 min | 2.68 GiB
Genre: Documentary

The Gene: An Intimate History is a four-hour documentary from Ken Burns and Barak Goodman, adapted from the award-winning book of the same name by Dr. Siddhartha Mukherjee. The series tells the story of the rapid evolution of genetic science from Gregor Mendel’s groundbreaking experiment in the 19th century to CRISPR, and the hope that newfound powers to alter DNA with pinpoint precision will transform the treatment of some of the world’s most complex and challenging diseases. The series also tackles the daunting ethical challenges that these technologies pose for humankind.

87af7b154f6ebe17fc572d89f89ab00a.mkv (2.7 GB)



General
Unique ID : 152598209914249789384079579218338142292 (0x72CD58A02104A43AC957DCE302AC5854)
Complete name : ./87af7b154f6ebe17fc572d89f89ab00a.mkv
Format : Matroska
Format version : Version 4 / Version 2
File size : 2.68 GiB
Duration : 1 h 54 min
Overall bit rate : 3 357 kb/s
Encoded date : UTC 2020-04-27 10:57:42
Writing application : mkvmerge v43.0.0 ('The Quartermaster') 64-bit
Writing library : libebml v1.3.10 + libmatroska v1.5.2

Video
ID : 1
Format : AVC
Format/Info : Advanced Video Codec
Format profile : High@L4.1
Format settings : CABAC / 5 Ref Frames
Format settings, CABAC : Yes
Format settings, RefFrames : 5 frames
Codec ID : V_MPEG4/ISO/AVC
Duration : 1 h 54 min
Bit rate : 3 197 kb/s
Width : 1 280 pixels
Height : 720 pixels
Display aspect ratio : 16:9
Frame rate mode : Constant
Frame rate : 23.976 (24000/1001) FPS
Color space : YUV
Chroma subsampling : 4:2:0
Bit depth : 8 bits
Scan type : Progressive
Bits/(Pixel*Frame) : 0.145
Stream size : 2.55 GiB (95%)
Writing library : x264 core 160 r3000 33f9e14
Encoding settings : cabac=1 / ref=5 / deblock=1:-3:-3 / analyse=0x3:0x113 / me=umh / subme=8 / psy=1 / psy_rd=1.00:0.15 / mixed_ref=1 / me_range=16 / chroma_me=1 / trellis=2 / 8x8dct=1 / cqm=0 / deadzone=21,11 / fast_pskip=1 / chroma_qp_offset=-3 / threads=18 / lookahead_threads=3 / sliced_threads=0 / nr=0 / decimate=1 / interlaced=0 / bluray_compat=0 / constrained_intra=0 / bframes=3 / b_pyramid=2 / b_adapt=1 / b_bias=0 / direct=3 / weightb=1 / open_gop=0 / weightp=2 / keyint=250 / keyint_min=23 / scenecut=40 / intra_refresh=0 / rc_lookahead=50 / rc=crf / mbtree=1 / crf=18.5 / qcomp=0.60 / qpmin=0 / qpmax=69 / qpstep=4 / ip_ratio=1.40 / aq=1:0.80
Language : English
Default : Yes
Forced : No
Color range : Limited
Matrix coefficients : BT.709

Audio
ID : 2
Format : AAC
Format/Info : Advanced Audio Codec
Format profile : LC
Codec ID : A_AAC-2
Duration : 1 h 54 min
Bit rate : 157 kb/s
Channel(s) : 2 channels
Channel positions : Front: L R
Sampling rate : 48.0 kHz
Frame rate : 46.875 FPS (1024 SPF)
Compression mode : Lossy
Stream size : 129 MiB (5%)
Language : English
Default : Yes
Forced : No





The Gene An Intimate History (Part 1) 2020


The Gene An Intimate History (Part 1) 2020


The Gene An Intimate History (Part 1) 2020


The Gene An Intimate History (Part 1) 2020