Tags
Language
Tags

The Good Doctor S01E05

Posted By: Tavaz
1080p (FullHD) / WEB-DL IMDb
The Good Doctor S01E05

The Good Doctor S01E05
WEB-DL | MKV | 1920x1080 | English | H264 @ 6466 kbps | E-AC-3 @ 640 kbps | 43 min 8 s | 2.14 GiB
Subtitles: English
Genre: Drama

A young surgeon with Savant syndrome is recruited into the surgical unit of a prestigious hospital. The question will arise: can a person who doesn't have the ability to relate to people actually save their lives?

6e7d62a6977a42e4b0dd44bf365aa967.mkv (2.1 GB)



General
Complete name : ./6e7d62a6977a42e4b0dd44bf365aa967.mkv
Format : Matroska
Format version : Version 4 / Version 2
File size : 2.14 GiB
Duration : 43 min 8 s
Overall bit rate mode : Variable
Overall bit rate : 7 109 kb/s
Encoded date : UTC 2017-10-24 07:47:21
Writing application : mkvmerge v17.0.0 ('Be Ur Friend') 64-bit
Writing library : libebml v1.3.5 + libmatroska v1.4.8

Video
ID : 1
Format : AVC
Format/Info : Advanced Video Codec
Format profile : High@L4
Format settings : CABAC / 4 Ref Frames
Format settings, CABAC : Yes
Format settings, RefFrames : 4 frames
Codec ID : V_MPEG4/ISO/AVC
Duration : 43 min 8 s
Bit rate mode : Variable
Bit rate : 6 466 kb/s
Maximum bit rate : 15.0 Mb/s
Width : 1 920 pixels
Height : 1 080 pixels
Display aspect ratio : 16:9
Frame rate mode : Constant
Frame rate : 23.976 (24000/1001) FPS
Color space : YUV
Chroma subsampling : 4:2:0
Bit depth : 8 bits
Scan type : Progressive
Bits/(Pixel*Frame) : 0.130
Stream size : 1.95 GiB (91%)
Default : Yes
Forced : No
Color range : Limited
Color primaries : BT.709
Transfer characteristics : BT.709
Matrix coefficients : BT.709

Audio
ID : 2
Format : E-AC-3
Format/Info : Enhanced Audio Coding 3
Format settings, Endianness : Big
Codec ID : A_EAC3
Duration : 43 min 8 s
Bit rate mode : Constant
Bit rate : 640 kb/s
Channel(s) : 6 channels
Channel positions : Front: L C R, Side: L R, LFE
Sampling rate : 48.0 kHz
Frame rate : 187.500 FPS (256 SPF)
Compression mode : Lossy
Stream size : 197 MiB (9%)
Language : English
Service kind : Complete Main
Default : Yes
Forced : No

Text
ID : 3
Format : UTF-8
Codec ID : S_TEXT/UTF8
Codec ID/Info : UTF-8 Plain Text
Duration : 42 min 24 s
Bit rate : 77 b/s
Count of elements : 927
Stream size : 23.9 KiB (0%)
Language : English
Default : No
Forced : No





The Good Doctor S01E05


The Good Doctor S01E05


The Good Doctor S01E05


The Good Doctor S01E05


The Good Doctor S01E05

All episodes