Tags
Language
Tags
July 2024
Su Mo Tu We Th Fr Sa
30 1 2 3 4 5 6
7 8 9 10 11 12 13
14 15 16 17 18 19 20
21 22 23 24 25 26 27
28 29 30 31 1 2 3

The Greatest Story Ever Told (1965)

Posted By: Tavaz
720p (HD) / BDRip
The Greatest Story Ever Told (1965)

The Greatest Story Ever Told (1965)
BDRip | MKV | 1280x720 | English | H264 @ 2048 kbps | AC-3 @ 512 kbps | 3 h 19 min | 3.56 GiB
Subtitles: English
Genre: Biography, Drama, History

An all-star, large scale epic movie that chronicles the life and ministry of Jesus Christ.,"My God, My God, why hast thou forsaken Me?" It is towards this climactic crossroads that the story of Jesus of Nazareth leads, and to which, at the final moment, it again looks back in triumphant retrospect. It is the anguishing crossroads where the eternal questions of faith and doubt become resolved.

b9b9f98636e54ac4a3db2c2c53d815af.mkv (3.6 GB)



General
Unique ID : 333897786689466037082481129846153198677 (0xFB325FE42574AFE767487FBE87F4BC55)
Complete name : ./b9b9f98636e54ac4a3db2c2c53d815af.mkv
Format : Matroska
Format version : Version 2
File size : 3.56 GiB
Duration : 3 h 19 min
Overall bit rate : 2 562 kb/s
Movie name : The.Greatest.Story.Ever.Told.1965.720p.BluRay.x264-x0r
Encoded date : UTC 2013-04-02 11:48:17
Writing application : mkvmerge v2.9.7 ('Tenderness') built on Jul 5 2009 13:26:28
Writing library : libebml v0.7.8 + libmatroska v0.8.1

Video
ID : 1
Format : AVC
Format/Info : Advanced Video Codec
Format profile : High@L4.1
Format settings : CABAC / 8 Ref Frames
Format settings, CABAC : Yes
Format settings, RefFrames : 8 frames
Codec ID : V_MPEG4/ISO/AVC
Duration : 3 h 19 min
Bit rate : 2 048 kb/s
Width : 1 280 pixels
Height : 720 pixels
Display aspect ratio : 16:9
Frame rate mode : Constant
Frame rate : 23.976 FPS
Color space : YUV
Chroma subsampling : 4:2:0
Bit depth : 8 bits
Scan type : Progressive
Bits/(Pixel*Frame) : 0.093
Stream size : 2.78 GiB (78%)
Writing library : x264 core 128
Encoding settings : cabac=1 / ref=8 / deblock=1:-2:-2 / analyse=0x3:0x113 / me=umh / subme=9 / psy=1 / psy_rd=1.00:0.25 / mixed_ref=1 / me_range=48 / chroma_me=1 / trellis=1 / 8x8dct=1 / cqm=0 / deadzone=6,6 / fast_pskip=0 / chroma_qp_offset=-4 / threads=12 / lookahead_threads=2 / sliced_threads=0 / nr=0 / decimate=0 / interlaced=0 / bluray_compat=0 / constrained_intra=0 / bframes=4 / b_pyramid=2 / b_adapt=2 / b_bias=0 / direct=3 / weightb=1 / open_gop=0 / weightp=1 / keyint=240 / keyint_min=24 / scenecut=40 / intra_refresh=0 / rc_lookahead=120 / rc=2pass / mbtree=1 / bitrate=2048 / ratetol=1.0 / qcomp=0.80 / qpmin=3 / qpmax=69 / qpstep=4 / cplxblur=20.0 / qblur=0.5 / ip_ratio=1.10 / aq=1:1.00
Language : English
Default : Yes
Forced : No
Color range : Limited
Color primaries : BT.709
Transfer characteristics : BT.709
Matrix coefficients : BT.709

Audio
ID : 2
Format : AC-3
Format/Info : Audio Coding 3
Format settings, Endianness : Big
Codec ID : A_AC3
Duration : 3 h 19 min
Bit rate mode : Constant
Bit rate : 512 kb/s
Channel(s) : 6 channels
Channel positions : Front: L C R, Side: L R, LFE
Sampling rate : 48.0 kHz
Frame rate : 31.250 FPS (1536 SPF)
Bit depth : 16 bits
Compression mode : Lossy
Stream size : 729 MiB (20%)
Language : English
Service kind : Complete Main
Default : Yes
Forced : No

Text
ID : 3
Format : UTF-8
Codec ID : S_TEXT/UTF8
Codec ID/Info : UTF-8 Plain Text
Language : English
Default : Yes
Forced : No

Menu
00:00:00.000 : :Chapter 1
00:04:47.915 : :Chapter 2
00:07:21.276 : :Chapter 3
00:11:31.860 : :Chapter 4
00:17:40.895 : :Chapter 5
00:26:16.952 : :Chapter 6
00:31:51.495 : :Chapter 7
00:39:13.270 : :Chapter 8
00:51:57.074 : :Chapter 9
00:56:14.957 : :Chapter 10
00:57:54.556 : :Chapter 11
01:01:37.070 : :Chapter 12
01:08:03.665 : :Chapter 13
01:11:47.889 : :Chapter 14
01:19:37.149 : :Chapter 15
01:23:31.425 : :Chapter 16
01:31:25.607 : :Chapter 17
01:36:54.728 : :Chapter 18
01:43:29.956 : :Chapter 19
01:46:05.278 : :Chapter 20
01:47:47.338 : :Chapter 21
02:03:01.042 : :Chapter 22
02:10:32.243 : :Chapter 23
02:18:53.536 : :Chapter 24
02:24:23.198 : :Chapter 25
02:34:00.150 : :Chapter 26
02:39:05.288 : :Chapter 27
02:45:30.005 : :Chapter 28
02:57:38.316 : :Chapter 29
03:02:26.187 : :Chapter 30
03:06:46.322 : :Chapter 31
03:11:09.543 : :Chapter 32
03:19:09.148 : :Chapter 33





The Greatest Story Ever Told (1965)


The Greatest Story Ever Told (1965)


The Greatest Story Ever Told (1965)


The Greatest Story Ever Told (1965)


The Greatest Story Ever Told (1965)