Tags
Language
Tags

The Hornet's Nest (2014)

Posted By: Tavaz
720p (HD) / BDRip IMDb
The Hornet's Nest (2014)

The Hornet's Nest (2014)
BDRip | MKV | 1280x720 | English | H264 @ 4976 kbps | DTS @ 1509 kbps | 1 h 36 min | 4.37 GiB
Genre: Documentary, Action, History, War

Armed only with their cameras, Peabody and Emmy Award-winning conflict Journalist Mike Boettcher, and his son, Carlos, provide unprecedented access into the longest war in U.S. history.,Career Journalist Mike Boettcher takes his son to the war zone in Afghanistan, covering U.S. Combat Troops on the front lines. What starts out as an effort to reconnect with his son, becomes a remarkable true story and fight for survival for all.::Anonymous,Armed only with their cameras, Peabody and Emmy winning war correspondent, Mike Boettcher, and his son, Carlos, spend over a year covering the most violent era of the Afghanistan war. With cameras rolling, they are side by side with American forces in some of the conflict's toughest battles. Their story is compared to "Lone Survivor" meets "Blackhawk Down" except 100% REAL, as Mike and Carlos discover that the family bond they seek is right in front of them - displayed daily in the actions of the Soldiers and Marines who sacrifice everything to save the lives of their brothers. These stories captured as they happen on Afghanistan's battlefields, The Hornet's Nest is the definitive film of America's longest war.::David Salzberg

The.Hornets.Nest.2014.RERIP.720p.BluRay.DTS.x264-TOPCAT.mkv (4.4 GB)



General
Unique ID : 216177289639282461611745785973412848070 (0xA2A23B464A02F31EA0981F255389E1C6)
Complete name : ./The.Hornets.Nest.2014.RERIP.720p.BluRay.DTS.x264-TOPCAT.mkv
Format : Matroska
Format version : Version 4 / Version 2
File size : 4.37 GiB
Duration : 1 h 36 min
Overall bit rate : 6 484 kb/s
Encoded date : UTC 2014-10-06 20:45:49
Writing application : mkvmerge v7.2.0 ('On Every Street') 64bit built on Sep 13 2014 15:52:10
Writing library : libebml v1.3.0 + libmatroska v1.4.1

Video
ID : 1
Format : AVC
Format/Info : Advanced Video Codec
Format profile : High@L4.1
Format settings : CABAC / 5 Ref Frames
Format settings, CABAC : Yes
Format settings, RefFrames : 5 frames
Codec ID : V_MPEG4/ISO/AVC
Duration : 1 h 36 min
Bit rate : 4 976 kb/s
Width : 1 280 pixels
Height : 720 pixels
Display aspect ratio : 16:9
Frame rate mode : Constant
Frame rate : 23.976 (24000/1001) FPS
Color space : YUV
Chroma subsampling : 4:2:0
Bit depth : 8 bits
Scan type : Progressive
Bits/(Pixel*Frame) : 0.225
Stream size : 3.36 GiB (77%)
Writing library : x264 core 142 r2479 dd79a61
Encoding settings : cabac=1 / ref=5 / deblock=1:0:0 / analyse=0x3:0x113 / me=umh / subme=7 / psy=1 / psy_rd=1.00:0.00 / mixed_ref=1 / me_range=16 / chroma_me=1 / trellis=1 / 8x8dct=1 / cqm=0 / deadzone=21,11 / fast_pskip=1 / chroma_qp_offset=-4 / threads=12 / lookahead_threads=2 / sliced_threads=0 / nr=0 / decimate=1 / interlaced=0 / bluray_compat=0 / constrained_intra=0 / bframes=3 / b_pyramid=2 / b_adapt=2 / b_bias=0 / direct=3 / weightb=1 / open_gop=0 / weightp=2 / keyint=240 / keyint_min=22 / scenecut=40 / intra_refresh=0 / rc_lookahead=50 / rc=2pass / mbtree=1 / bitrate=4976 / ratetol=1.0 / qcomp=0.60 / qpmin=0 / qpmax=69 / qpstep=4 / cplxblur=20.0 / qblur=0.5 / vbv_maxrate=62500 / vbv_bufsize=78125 / nal_hrd=none / filler=0 / ip_ratio=1.40 / aq=1:1.00
Default : Yes
Forced : No

Audio
ID : 2
Format : DTS
Format/Info : Digital Theater Systems
Mode : 16
Format settings, Endianness : Big
Codec ID : A_DTS
Duration : 1 h 36 min
Bit rate mode : Constant
Bit rate : 1 509 kb/s
Channel(s) : 6 channels
Channel positions : Front: L C R, Side: L R, LFE
Sampling rate : 48.0 kHz
Frame rate : 93.750 FPS (512 SPF)
Bit depth : 24 bits
Compression mode : Lossy
Stream size : 1.02 GiB (23%)
Language : English
Default : Yes
Forced : No

Menu
00:00:00.000 : en:00:00:00.000
00:06:56.116 : en:00:06:56.116
00:15:07.340 : en:00:15:07.340
00:25:10.342 : en:00:25:10.342
00:32:24.576 : en:00:32:24.576
00:39:24.796 : en:00:39:24.796
00:46:01.892 : en:00:46:01.892
00:53:42.419 : en:00:53:42.419
01:01:10.233 : en:01:01:10.233
01:09:45.281 : en:01:09:45.281
01:19:17.686 : en:01:19:17.686
01:27:29.711 : en:01:27:29.711





The Hornet's Nest (2014)


The Hornet's Nest (2014)


The Hornet's Nest (2014)


The Hornet's Nest (2014)


The Hornet's Nest (2014)