The Hunger Games (2012) [10 bit]

Posted By: Tavaz
2160p (4k UHD) / BDRip IMDb
The Hunger Games (2012) [10 bit]

The Hunger Games (2012) [10 bit]
BDRip | MKV | 3840x2160 | English | H265 @ 6030 kbps | AC-3 @ 640 kbps | 2 h 22 min | 6.67 GiB
Subtitles: Portuguese, Spanish, English
Genre: Adventure, Fantasy, Science Fiction

Every year in the ruins of what was once North America, the nation of Panem forces each of its twelve districts to send a teenage boy and girl to compete in the Hunger Games. Part twisted entertainment, part government intimidation tactic, the Hunger Games are a nationally televised event in which “Tributes” must fight with one another until one survivor remains. Pitted against highly-trained Tributes who have prepared for these Games their entire lives, Katniss is forced to rely upon her sharp instincts as well as the mentorship of drunken former victor Haymitch Abernathy. If she’s ever to return home to District 12, Katniss must make impossible choices in the arena that weigh survival against humanity and life against love. The world will be watching.

04758f9cf6b24b708eaf6a006ad9bdef.mkv (6.7 GB)
04758f9cf6b24b708eaf6a006ad9bdef(1).mkv (6.7 GB)



General
Complete name : ./04758f9cf6b24b708eaf6a006ad9bdef.mkv
Format : Matroska
Format version : Version 4 / Version 2
File size : 6.67 GiB
Duration : 2 h 22 min
Overall bit rate : 6 696 kb/s
Encoded date : UTC 2018-02-25 02:14:09
Writing application : mkvmerge v20.0.0 ('I Am The Sun') 64-bit
Writing library : libebml v1.3.5 + libmatroska v1.4.8
Cover : Yes
Attachments : cover.jpg

Video
ID : 1
Format : HEVC
Format/Info : High Efficiency Video Coding
Format profile : Main 10@L5@Main
Codec ID : V_MPEGH/ISO/HEVC
Duration : 2 h 22 min
Bit rate : 6 030 kb/s
Width : 3 840 pixels
Height : 2 160 pixels
Display aspect ratio : 16:9
Frame rate mode : Constant
Frame rate : 23.976 (24000/1001) FPS
Color space : YUV
Chroma subsampling : 4:2:0
Bit depth : 10 bits
Bits/(Pixel*Frame) : 0.030
Stream size : 6.00 GiB (90%)
Title : [SGJ5-LorD]
Language : English
Default : Yes
Forced : No
Color range : Limited
Color primaries : BT.2020
Transfer characteristics : PQ
Matrix coefficients : BT.2020 non-constant

Audio
ID : 2
Format : AC-3
Format/Info : Audio Coding 3
Format settings, Endianness : Big
Codec ID : A_AC3
Duration : 2 h 22 min
Bit rate mode : Constant
Bit rate : 640 kb/s
Channel(s) : 6 channels
Channel positions : Front: L C R, Side: L R, LFE
Sampling rate : 48.0 kHz
Frame rate : 31.250 FPS (1536 SPF)
Bit depth : 16 bits
Compression mode : Lossy
Stream size : 652 MiB (10%)
Title : Compatibility Track / Dolby Digital Audio / 5.1-EX / 48 kHz / 640 kbps
Language : English
Service kind : Complete Main
Default : Yes
Forced : No

Text #1
ID : 3
Format : UTF-8
Codec ID : S_TEXT/UTF8
Codec ID/Info : UTF-8 Plain Text
Duration : 2 h 21 min
Bit rate : 31 b/s
Count of elements : 1104
Stream size : 32.9 KiB (0%)
Language : Portuguese
Default : Yes
Forced : No

Text #2
ID : 4
Format : PGS
Muxing mode : zlib
Codec ID : S_HDMV/PGS
Codec ID/Info : Picture based subtitle format used on BDs/HD-DVDs
Duration : 2 h 11 min
Bit rate : 22.3 kb/s
Count of elements : 2196
Stream size : 21.0 MiB (0%)
Language : English
Default : No
Forced : No

Text #3
ID : 5
Format : PGS
Muxing mode : zlib
Codec ID : S_HDMV/PGS
Codec ID/Info : Picture based subtitle format used on BDs/HD-DVDs
Duration : 2 h 11 min
Bit rate : 25.3 kb/s
Count of elements : 2500
Stream size : 23.8 MiB (0%)
Title : SDH
Language : English
Default : No
Forced : No

Text #4
ID : 6
Format : PGS
Muxing mode : zlib
Codec ID : S_HDMV/PGS
Codec ID/Info : Picture based subtitle format used on BDs/HD-DVDs
Duration : 2 h 11 min
Bit rate : 19.9 kb/s
Count of elements : 2224
Stream size : 18.8 MiB (0%)
Title : Latin American
Language : Spanish
Default : No
Forced : No

Menu
00:00:00.000 : en:District 12
00:10:05.813 : en:Check In
00:18:00.078 : en:Try to Win
00:25:05.879 : en:Advise
00:31:12.662 : en:First Look
00:43:28.564 : en:Shoot Straight
00:50:38.702 : en:Girl On Fire
00:56:58.915 : en:Special Girl
01:06:57.763 : en:Countdown
01:15:58.970 : en:At the Edge
01:22:06.046 : en:Very Lethal
01:29:00.418 : en:Not Going to Hurt You
01:38:00.749 : en:Trapped
01:43:19.192 : en:Young Love
01:57:56.611 : en:Only Team
02:09:26.550 : en:Star Crossed Lovers





The Hunger Games (2012) [10 bit]


The Hunger Games (2012) [10 bit]


The Hunger Games (2012) [10 bit]


The Hunger Games (2012) [10 bit]


The Hunger Games (2012) [10 bit]