Tags
Language
Tags

The Incredibles (2004)

Posted By: Tavaz
1080p (FullHD) / BDRip IMDb
The Incredibles (2004)

The Incredibles (2004)
BDRip | MKV | 1920x802 | English | H265 @ 1407 kbps | DTS @ 1509 kbps | 1 h 55 min | 2.40 GiB
Subtitles: English
Genre: Action, Adventure, Animation, Family

Bob Parr has given up his superhero days to log in time as an insurance adjuster and raise his three children with his formerly heroic wife in suburbia. But when he receives a mysterious assignment, it's time to get back into costume.

The.Incredibles.2004.1080p.BluRay.DTS.x265.10bit.HEVC.mkv (2.4 GB)



General
Unique ID : 300401568699690301529327245114137710839 (0xE1FF3CD6A0C43FB798A5D687A06D10F7)
Complete name : ./The.Incredibles.2004.1080p.BluRay.DTS.x265.10bit.HEVC.mkv
Format : Matroska
Format version : Version 4 / Version 2
File size : 2.40 GiB
Duration : 1 h 55 min
Overall bit rate : 2 976 kb/s
Movie name : The Incredibles
Encoded date : UTC 2018-06-10T08:16:27Z
Writing application : HandBrake 20180312160525-c038876-master 2018031401
Writing library : Lavf57.7.2

Video
ID : 1
Format : HEVC
Format/Info : High Efficiency Video Coding
Format profile : Main 10@L4@Main
Codec ID : V_MPEGH/ISO/HEVC
Duration : 1 h 55 min
Bit rate : 1 408 kb/s
Width : 1 920 pixels
Height : 802 pixels
Display aspect ratio : 2.40:1
Frame rate mode : Constant
Frame rate : 23.976 (24000/1001) FPS
Color space : YUV
Chroma subsampling : 4:2:0
Bit depth : 10 bits
Bits/(Pixel*Frame) : 0.038
Stream size : 1.14 GiB (47%)
Writing library : x265 2.6:[Windows][GCC 7.1.0][64 bit] 10bit
Encoding settings : cpuid=1173503 / frame-threads=4 / numa-pools=16 / wpp / no-pmode / no-pme / no-psnr / no-ssim / log-level=2 / input-csp=1 / input-res=1920x802 / interlace=0 / total-frames=0 / level-idc=0 / high-tier=1 / uhd-bd=0 / ref=3 / no-allow-non-conformance / no-repeat-headers / annexb / no-aud / no-hrd / info / hash=0 / no-temporal-layers / open-gop / min-keyint=24 / keyint=240 / bframes=4 / b-adapt=0 / b-pyramid / bframe-bias=0 / rc-lookahead=15 / lookahead-slices=5 / scenecut=40 / no-intra-refresh / ctu=64 / min-cu-size=8 / no-rect / no-amp / max-tu-size=32 / tu-inter-depth=1 / tu-intra-depth=1 / limit-tu=0 / rdoq-level=0 / dynamic-rd=0.00 / no-ssim-rd / signhide / no-tskip / nr-intra=0 / nr-inter=0 / no-constrained-intra / strong-intra-smoothing / max-merge=2 / limit-refs=3 / no-limit-modes / me=1 / subme=2 / merange=57 / temporal-mvp / weightp / no-weightb / no-analyze-src-pics / deblock=0:0 / sao / no-sao-non-deblock / rd=2 / no-early-skip / rskip / fast-intra / no-tskip-fast / no-cu-lossless / no-b-intra / no-splitrd-skip / rdpenalty=0 / psy-rd=2.00 / psy-rdoq=0.00 / no-rd-refine / analysis-reuse-mode=0 / no-lossless / cbqpoffs=0 / crqpoffs=0 / rc=crf / crf=23.0 / qcomp=0.60 / qpstep=4 / stats-write=0 / stats-read=0 / ipratio=1.40 / pbratio=1.30 / aq-mode=1 / aq-strength=1.00 / cutree / zone-count=0 / no-strict-cbr / qg-size=32 / no-rc-grain / qpmax=69 / qpmin=0 / no-const-vbv / sar=1 / overscan=0 / videoformat=5 / range=0 / colorprim=1 / transfer=1 / colormatrix=1 / chromaloc=0 / display-window=0 / max-cll=0,0 / min-luma=0 / max-luma=1023 / log2-max-poc-lsb=8 / vui-timing-info / vui-hrd-info / slices=1 / no-opt-qp-pps / no-opt-ref-list-length-pps / no-multi-pass-opt-rps / scenecut-bias=0.05 / no-opt-cu-delta-qp / no-aq-motion / no-hdr / no-hdr-opt / no-dhdr10-opt / analysis-reuse-level=5 / scale-factor=0 / refine-intra=0 / refine-inter=0 / refine-mv=0 / no-limit-sao / ctu-info=0 / no-lowpass-dct / refine-mv-type=0 / copy-pic=1
Default : Yes
Forced : No
Color range : Limited
Color primaries : BT.709
Transfer characteristics : BT.709
Matrix coefficients : BT.709

Audio
ID : 2
Format : DTS
Format/Info : Digital Theater Systems
Format profile : ES Matrix / Core
Mode : 16
Format settings, Endianness : Big
Codec ID : A_DTS
Duration : 1 h 55 min
Bit rate mode : Constant
Bit rate : 1 509 kb/s
Channel(s) : 7 channels / 6 channels
Channel positions : Front: L C R, Side: L R, Back: C, LFE / Front: L C R, Side: L R, LFE
Sampling rate : 48.0 kHz
Frame rate : 93.750 FPS (512 SPF)
Bit depth : 24 bits
Compression mode : Lossy
Stream size : 1.22 GiB (51%)
Title : Surround
Language : English
Default : Yes
Forced : No

Text
ID : 3
Format : PGS
Codec ID : S_HDMV/PGS
Codec ID/Info : Picture based subtitle format used on BDs/HD-DVDs
Language : English
Default : No
Forced : No

Menu
00:00:00.000 : :Chapter 1
00:09:14.554 : :Chapter 2
00:11:32.567 : :Chapter 3
00:13:31.477 : :Chapter 4
00:17:08.528 : :Chapter 5
00:20:44.994 : :Chapter 6
00:26:53.529 : :Chapter 7
00:30:42.341 : :Chapter 8
00:34:54.593 : :Chapter 9
00:41:27.235 : :Chapter 10
00:46:01.676 : :Chapter 11
00:48:54.515 : :Chapter 12
00:50:02.249 : :Chapter 13
00:54:01.905 : :Chapter 14
00:57:09.635 : :Chapter 15
01:00:35.799 : :Chapter 16
01:05:04.943 : :Chapter 17
01:10:53.708 : :Chapter 18
01:12:58.040 : :Chapter 19
01:16:27.583 : :Chapter 20
01:19:19.213 : :Chapter 21
01:21:13.911 : :Chapter 22
01:23:59.660 : :Chapter 23
01:27:05.762 : :Chapter 24
01:30:29.925 : :Chapter 25
01:32:47.520 : :Chapter 26
01:33:33.149 : :Chapter 27
01:34:30.415 : :Chapter 28
01:37:03.151 : :Chapter 29
01:41:58.195 : :Chapter 30
01:45:40.000 : :Chapter 31
01:47:33.364 : :Chapter 32





The Incredibles (2004)


The Incredibles (2004)


The Incredibles (2004)


The Incredibles (2004)


The Incredibles (2004)