The Keys of the Kingdom (1944)

Posted By: Tavaz
1080p (FullHD) / BDRip IMDb
The Keys of the Kingdom (1944)

The Keys of the Kingdom (1944)
BDRip | MKV | 1488x1080 | English | H264 @ 10341 kbps | FLAC @ 1040 kbps | 2 h 17 min | 10.9 GiB
Genre: Drama

A young priest, Father Chisholm is sent to China to establish a Catholic parish among the non-Christian Chinese. While his boyhood friend, also a priest, flourishes in his calling as a priest in a more Christian area of the world, Father Chisholm struggles. He encounters hostility, isolation, disease, poverty and a variety of set backs which humble him, but make him more determined than ever to succeed.

The.Keys.of.the.Kingdom.1944.1080p.BluRay.x264-SADPANDA.sub (18.8 MB)
The.Keys.of.the.Kingdom.1944.1080p.BluRay.x264-SADPANDA.mkv (10.9 GB)
The.Keys.of.the.Kingdom.1944.1080p.BluRay.x264-SADPANDA.idx (78.0 KB)



General
Unique ID : 209697594642293085327614543160653728946 (0x9DC249A550A47D149D974676F6C54CB2)
Complete name : ./The.Keys.of.the.Kingdom.1944.1080p.BluRay.x264-SADPANDA.mkv
Format : Matroska
Format version : Version 4 / Version 2
File size : 10.9 GiB
Duration : 2 h 17 min
Overall bit rate mode : Variable
Overall bit rate : 11.4 Mb/s
Encoded date : UTC 2017-04-11 13:41:07
Writing application : mkvmerge v10.0.0 ('To Drown In You') 64bit
Writing library : libebml v1.3.4 + libmatroska v1.4.5

Video
ID : 1
Format : AVC
Format/Info : Advanced Video Codec
Format profile : High@L4.1
Format settings : CABAC / 5 Ref Frames
Format settings, CABAC : Yes
Format settings, RefFrames : 5 frames
Codec ID : V_MPEG4/ISO/AVC
Duration : 2 h 17 min
Bit rate : 10.3 Mb/s
Width : 1 488 pixels
Height : 1 080 pixels
Display aspect ratio : 1.378
Frame rate mode : Constant
Frame rate : 23.976 (24000/1001) FPS
Color space : YUV
Chroma subsampling : 4:2:0
Bit depth : 8 bits
Scan type : Progressive
Bits/(Pixel*Frame) : 0.268
Stream size : 9.92 GiB (91%)
Writing library : x264 core 148 r2744 b97ae06
Encoding settings : cabac=1 / ref=5 / deblock=1:-3:-3 / analyse=0x3:0x113 / me=umh / subme=8 / psy=1 / psy_rd=1.00:0.25 / mixed_ref=1 / me_range=24 / chroma_me=1 / trellis=1 / 8x8dct=1 / cqm=0 / deadzone=21,11 / fast_pskip=1 / chroma_qp_offset=-4 / threads=30 / lookahead_threads=5 / sliced_threads=0 / nr=0 / decimate=1 / interlaced=0 / bluray_compat=0 / constrained_intra=0 / bframes=3 / b_pyramid=2 / b_adapt=1 / b_bias=0 / direct=3 / weightb=1 / open_gop=0 / weightp=2 / keyint=240 / keyint_min=24 / scenecut=40 / intra_refresh=0 / rc_lookahead=50 / rc=2pass / mbtree=1 / bitrate=10341 / ratetol=1.0 / qcomp=0.60 / qpmin=0 / qpmax=69 / qpstep=4 / cplxblur=20.0 / qblur=0.5 / ip_ratio=1.40 / aq=1:0.75
Default : Yes
Forced : No

Audio
ID : 2
Format : FLAC
Format/Info : Free Lossless Audio Codec
Codec ID : A_FLAC
Duration : 2 h 17 min
Bit rate mode : Variable
Bit rate : 1 041 kb/s
Channel(s) : 2 channels
Channel positions : Front: L R
Sampling rate : 48.0 kHz
Frame rate : 11.719 FPS (4096 SPF)
Bit depth : 24 bits
Stream size : 1 023 MiB (9%)
Writing library : libFLAC 1.2.1 (UTC 2007-09-17)
Language : English
Default : Yes
Forced : No

Menu
00:00:00.000 : en:00:00:00.000
00:05:07.307 : en:00:05:07.307
00:11:19.846 : en:00:11:19.846
00:15:51.367 : en:00:15:51.367
00:24:46.610 : en:00:24:46.610
00:31:08.283 : en:00:31:08.283
00:34:00.038 : en:00:34:00.038
00:38:11.289 : en:00:38:11.289
00:43:26.604 : en:00:43:26.604
00:49:42.980 : en:00:49:42.980
00:56:33.390 : en:00:56:33.390
01:02:28.870 : en:01:02:28.870
01:08:14.215 : en:01:08:14.215
01:13:09.802 : en:01:13:09.802
01:20:01.797 : en:01:20:01.797
01:24:54.089 : en:01:24:54.089
01:31:28.483 : en:01:31:28.483
01:36:42.964 : en:01:36:42.964
01:43:03.469 : en:01:43:03.469
01:47:05.419 : en:01:47:05.419
01:55:05.899 : en:01:55:05.899
01:58:25.890 : en:01:58:25.890
02:04:09.359 : en:02:04:09.359
02:11:28.881 : en:02:11:28.881





The Keys of the Kingdom (1944)


The Keys of the Kingdom (1944)


The Keys of the Kingdom (1944)


The Keys of the Kingdom (1944)


The Keys of the Kingdom (1944)