Tags
Language
Tags

The Librarian: The Curse of the Judas Chalice (2008)

Posted By: Tavaz
1080p (FullHD) / BDRip IMDb
The Librarian: The Curse of the Judas Chalice (2008)

The Librarian: The Curse of the Judas Chalice (2008)
BDRip | MKV | 1920x1080 | English | H265 @ 3404 kbps | AC-3 @ 448 kbps | 1 h 30 min | 2.43 GiB
Genre: Fantasy, Action, Adventure, Comedy

While on a dangerous mission to recover the historic Judas Chalice, Flynn is saved by Simone. But when double-crossed by a respected professor and ambushed by a ruthless gang, Flynn realizes Simone's secret, his true mission and a shocking discovery are all lying within a decaying New Orleans crypt.

0b4c739ad3b48e4d3d817fda7d95b97d.mkv (2.4 GB)



General
Unique ID : 172150421943029505091742588431110838391 (0x8182F71B02B1529E81E2018C21D91877)
Complete name : ./0b4c739ad3b48e4d3d817fda7d95b97d.mkv
Format : Matroska
Format version : Version 2
File size : 2.43 GiB
Duration : 1 h 30 min
Overall bit rate : 3 854 kb/s
Movie name : The Librarian III-The Curse of the Judas Chalice 2008 BluRay 10Bit 1080p DD5.1 H265-d3g
Encoded date : UTC 2018-02-22 05:47:47
Writing application : DVDFab 10.0.8.1
Writing library : libebml v1.3.4 + libmatroska v1.4.5

Video
ID : 1
Format : HEVC
Format/Info : High Efficiency Video Coding
Format profile : Main 10@L4@Main
Codec ID : V_MPEGH/ISO/HEVC
Duration : 1 h 30 min
Bit rate : 3 405 kb/s
Width : 1 920 pixels
Height : 1 080 pixels
Display aspect ratio : 16:9
Frame rate mode : Constant
Frame rate : 23.976 (24000/1001) FPS
Color space : YUV
Chroma subsampling : 4:2:0
Bit depth : 10 bits
Bits/(Pixel*Frame) : 0.068
Stream size : 2.14 GiB (88%)
Default : Yes
Forced : No
Color range : Limited
Color primaries : BT.709
Transfer characteristics : BT.709
Matrix coefficients : BT.709

Audio
ID : 2
Format : AC-3
Format/Info : Audio Coding 3
Format settings, Endianness : Big
Codec ID : A_AC3
Duration : 1 h 30 min
Bit rate mode : Constant
Bit rate : 448 kb/s
Channel(s) : 6 channels
Channel positions : Front: L C R, Side: L R, LFE
Sampling rate : 48.0 kHz
Frame rate : 31.250 FPS (1536 SPF)
Bit depth : 16 bits
Compression mode : Lossy
Stream size : 289 MiB (12%)
Language : English
Service kind : Complete Main
Default : Yes
Forced : No

Menu
00:00:00.000 : en:(01)00:00:00:000
00:02:42.495 : en:(02)00:02:42:495
00:09:09.715 : en:(03)00:09:09:715
00:11:12.672 : en:(04)00:11:12:672
00:18:48.585 : en:(05)00:18:48:585
00:21:36.712 : en:(06)00:21:36:712
00:25:28.276 : en:(07)00:25:28:276
00:32:09.177 : en:(08)00:32:09:177
00:36:46.913 : en:(09)00:36:46:913
00:41:55.137 : en:(10)00:41:55:137
00:44:22.451 : en:(11)00:44:22:451
00:50:21.977 : en:(12)00:50:21:977
00:53:34.961 : en:(13)00:53:34:961
00:58:51.778 : en:(14)00:58:51:778
01:01:59.716 : en:(15)01:01:59:716
01:06:32.446 : en:(16)01:06:32:446
01:12:23.422 : en:(17)01:12:23:422
01:16:06.353 : en:(18)01:16:06:353
01:22:24.564 : en:(19)01:22:24:564
01:29:34.494 : en:(20)01:29:34:494





The Librarian: The Curse of the Judas Chalice (2008)


The Librarian: The Curse of the Judas Chalice (2008)


The Librarian: The Curse of the Judas Chalice (2008)


The Librarian: The Curse of the Judas Chalice (2008)


The Librarian: The Curse of the Judas Chalice (2008)