Tags
Language
Tags

The Madness of King George (1994)

Posted By: Tavaz
1080p (FullHD) / BDRip IMDb
The Madness of King George (1994)

The Madness of King George (1994)
BDRip | MKV | 1920x1080 | English | H264 @ 5760 kbps | AC-3 @ 192 kbps | 1 h 50 min | 4.59 GiB
Subtitles: English
Genre: Comedy, Drama, History

King George III's erratic behaviour leads to a plot in Parliament to have him declared insane and removed from the throne.

47aca1475e32134562f0e45314342d44.mkv (4.6 GB)



General
Unique ID : 261322185155121866534619943670888978634 (0xC498D27892A56BC2F15F8AF400EED8CA)
Complete name : ./47aca1475e32134562f0e45314342d44.mkv
Format : Matroska
Format version : Version 4 / Version 2
File size : 4.59 GiB
Duration : 1 h 50 min
Overall bit rate : 5 952 kb/s
Movie name : The.Madness.of.King.George.1994.1080p.BluRay.x264-nikt0
Encoded date : UTC 2020-02-09 03:11:43 / UTC 2020-02-08T21:22:58Z
Writing application : mkvmerge v38.0.0 ('The Silent Type') 64-bit
Writing library : libebml v1.3.9 + libmatroska v1.5.2 / Lavf57.7.2

Video
ID : 1
Format : AVC
Format/Info : Advanced Video Codec
Format profile : High@L4
Format settings : CABAC / 4 Ref Frames
Format settings, CABAC : Yes
Format settings, RefFrames : 4 frames
Codec ID : V_MPEG4/ISO/AVC
Duration : 1 h 50 min
Bit rate : 5 760 kb/s
Width : 1 920 pixels
Height : 1 080 pixels
Display aspect ratio : 16:9
Frame rate mode : Constant
Frame rate : 23.976 (24000/1001) FPS
Color space : YUV
Chroma subsampling : 4:2:0
Bit depth : 8 bits
Scan type : Progressive
Bits/(Pixel*Frame) : 0.116
Stream size : 4.35 GiB (95%)
Writing library : x264 core 155 r2901 7d0ff22
Encoding settings : cabac=1 / ref=4 / deblock=1:-3:-3 / analyse=0x3:0x133 / me=umh / subme=9 / psy=1 / psy_rd=1.10:0.25 / mixed_ref=1 / me_range=32 / chroma_me=1 / trellis=2 / 8x8dct=1 / cqm=0 / deadzone=6,6 / fast_pskip=1 / chroma_qp_offset=-4 / threads=34 / lookahead_threads=3 / sliced_threads=0 / nr=0 / decimate=1 / interlaced=0 / bluray_compat=0 / constrained_intra=0 / bframes=6 / b_pyramid=2 / b_adapt=2 / b_bias=0 / direct=3 / weightb=1 / open_gop=0 / weightp=2 / keyint=240 / keyint_min=24 / scenecut=40 / intra_refresh=0 / rc_lookahead=40 / rc=2pass / mbtree=1 / bitrate=5760 / ratetol=1.0 / qcomp=0.60 / qpmin=0 / qpmax=69 / qpstep=4 / cplxblur=20.0 / qblur=0.5 / vbv_maxrate=20000 / vbv_bufsize=25000 / nal_hrd=none / filler=0 / ip_ratio=1.40 / aq=1:1.00
Default : Yes
Forced : No
Color range : Limited
Color primaries : BT.709
Transfer characteristics : BT.709
Matrix coefficients : BT.709
Statistics Tags Issue : mkvmerge v38.0.0 ('The Silent Type') 64-bit 2020-02-09 03:11:43 / mkvmerge v38.0.0 ('The Silent Type') 64-bit 2020-02-09 03:11:43 / UTC 2020-02-08T21:22:58Z
FromStats_BitRate : 5758247
FromStats_Duration : 01:50:27.496000000
FromStats_FrameCount : 158901
FromStats_StreamSize : 4770344881

Audio
ID : 2
Format : AC-3
Format/Info : Audio Coding 3
Format settings, Endianness : Big
Codec ID : A_AC3
Duration : 1 h 50 min
Bit rate mode : Constant
Bit rate : 192 kb/s
Channel(s) : 2 channels
Channel positions : Front: L R
Sampling rate : 48.0 kHz
Frame rate : 31.250 FPS (1536 SPF)
Bit depth : 16 bits
Compression mode : Lossy
Stream size : 152 MiB (3%)
Title : Stereo
Language : English
Service kind : Complete Main
Default : Yes
Forced : No
Statistics Tags Issue : mkvmerge v38.0.0 ('The Silent Type') 64-bit 2020-02-09 03:11:43 / mkvmerge v38.0.0 ('The Silent Type') 64-bit 2020-02-09 03:11:43 / UTC 2020-02-08T21:22:58Z
FromStats_BitRate : 192000
FromStats_Duration : 01:50:27.520000000
FromStats_FrameCount : 207110
FromStats_StreamSize : 159060480

Text
ID : 3
Format : UTF-8
Codec ID : S_TEXT/UTF8
Codec ID/Info : UTF-8 Plain Text
Language : English
Default : Yes
Forced : No
Statistics Tags Issue : mkvmerge v38.0.0 ('The Silent Type') 64-bit 2020-02-09 03:11:43 / mkvmerge v38.0.0 ('The Silent Type') 64-bit 2020-02-09 03:11:43 / UTC 2020-02-08T21:22:58Z
FromStats_BitRate : 61
FromStats_Duration : 01:44:50.367000000
FromStats_FrameCount : 1527
FromStats_StreamSize : 48150





The Madness of King George (1994)


The Madness of King George (1994)


The Madness of King George (1994)


The Madness of King George (1994)


The Madness of King George (1994)