Fascinating Nature: The Most Spectacular Landscapes (1996)

Posted By: ParRus
Fascinating Nature: The Most Spectacular Landscapes (1996)

Fascinating Nature: The Most Spectacular Landscapes (1996)
Bluray-Rip 720 | MKV | 1280 x 720 | AVC ~6637 Kbps | 24 fps
audio: No Dialogs | DTS | 1510 kbps | 48.0 KHz | 2 channels | 1h 29mn | 5.17 GB
Genre: Documentary

The miracle of life. The warm rays of the sun, the blue planet Pierce, filling it with light and color. Shades of dazzling white snow, plants, bright green, yellow and purple hot earth, endless variety of colorful flowers and animals, the blue sea and skies - all transformed our world in an endless game of colors, shadows and highlights.
General
Complete name : The.Most.Spectacular.Landscapes.1996.mkv
Format : Matroska
Format version : Version 2
File size : 5.17 GiB
Duration : 1h 29mn
Overall bit rate : 8 312 Kbps
Encoded date : UTC 2012-05-24 17:47:45
Writing application : mkvmerge v4.9.1 ('Ich will') built on Jul 11 2011 23:53:15
Writing library : libebml v1.2.1 + libmatroska v1.1.1
Video #1
ID : 1
Format : AVC
Format/Info : Advanced Video Codec
Format profile : High@L4.1
Format settings, CABAC : Yes
Format settings, ReFrames : 9 frames
Codec ID : V_MPEG4/ISO/AVC
Duration : 1h 29mn
Bit rate : 6 637 Kbps
Width : 1 280 pixels
Height : 720 pixels
Display aspect ratio : 16:9
Frame rate : 24.000 fps
Color space : YUV
Chroma subsampling : 4:2:0
Bit depth : 8 bits
Scan type : Progressive
Bits/(Pixel*Frame) : 0.300
Stream size : 4.13 GiB (80%)
Writing library : x264 core 116 r2074 2641b9e
Encoding settings : cabac=1 / ref=9 / deblock=1:-3:-3 / analyse=0x3:0x133 / me=umh / subme=9 / psy=1 / psy_rd=1.00:0.00 / mixed_ref=1 / me_range=32 / chroma_me=1 / trellis=2 / 8x8dct=1 / cqm=0 / deadzone=21,11 / fast_pskip=0 / chroma_qp_offset=-2 / threads=6 / sliced_threads=0 / nr=0 / decimate=0 / interlaced=0 / bluray_compat=0 / constrained_intra=0 / bframes=7 / b_pyramid=2 / b_adapt=2 / b_bias=0 / direct=3 / weightb=1 / open_gop=0 / weightp=2 / keyint=250 / keyint_min=24 / scenecut=40 / intra_refresh=0 / rc_lookahead=50 / rc=crf / mbtree=1 / crf=18.5 / qcomp=0.80 / qpmin=0 / qpmax=69 / qpstep=4 / vbv_maxrate=50000 / vbv_bufsize=62500 / crf_max=0.0 / nal_hrd=none / ip_ratio=1.40 / aq=1:0.80
Audio #2
ID : 2
Format : DTS
Format/Info : Digital Theater Systems
Codec ID : A_DTS
Duration : 1h 29mn
Bit rate mode : Constant
Bit rate : 1 510 Kbps
Channel(s) : 6 channels
Channel positions : Front: L C R, Side: L R, LFE
Sampling rate : 48.0 KHz
Bit depth : 24 bits
Compression mode : Lossy
Stream size : 962 MiB (18%)

ScreenShots

Fascinating Nature: The Most Spectacular Landscapes (1996)

Fascinating Nature: The Most Spectacular Landscapes (1996)

Fascinating Nature: The Most Spectacular Landscapes (1996)

Fascinating Nature: The Most Spectacular Landscapes (1996)

Fascinating Nature: The Most Spectacular Landscapes (1996)

For more, Visit my AH-blog

no mirrors please, Follow The Rules