Tags
Language
Tags

The Music Man (1962)

Posted By: Tavaz
1080p (FullHD) / BDRip IMDb
The Music Man (1962)

The Music Man (1962)
BDRip | MKV | 1920x796 | English | H265 @ 2242 kbps | AC-3 @ 448 kbps | 2 h 31 min | 2.86 GiB
Subtitles: English
Genre: Comedy, Music, Family

A con man comes to an Iowa town with a scam using a boy's marching band program, but things don't go according to plan.

893f6c5085ce4643a5d98be4723545a6.mkv (2.9 GB)



General
Complete name : ./893f6c5085ce4643a5d98be4723545a6.mkv
Format : Matroska
Format version : Version 2
File size : 2.86 GiB
Duration : 2 h 31 min
Overall bit rate : 2 703 kb/s
Encoded date : UTC 2018-02-09 23:32:41
Writing application : DVDFab 10.0.8.1
Writing library : libebml v1.3.4 + libmatroska v1.4.5

Video
ID : 1
Format : HEVC
Format/Info : High Efficiency Video Coding
Format profile : Main 10@L4@Main
Codec ID : V_MPEGH/ISO/HEVC
Duration : 2 h 31 min
Bit rate : 2 242 kb/s
Width : 1 920 pixels
Height : 796 pixels
Display aspect ratio : 2.40:1
Frame rate mode : Constant
Frame rate : 23.976 (24000/1001) FPS
Color space : YUV
Chroma subsampling : 4:2:0
Bit depth : 10 bits
Bits/(Pixel*Frame) : 0.061
Stream size : 2.37 GiB (83%)
Default : Yes
Forced : No
Color range : Limited
Color primaries : BT.709
Transfer characteristics : BT.709
Matrix coefficients : BT.709

Audio
ID : 2
Format : AC-3
Format/Info : Audio Coding 3
Format settings, Endianness : Big
Codec ID : A_AC3
Duration : 2 h 31 min
Bit rate mode : Constant
Bit rate : 448 kb/s
Channel(s) : 6 channels
Channel positions : Front: L C R, Side: L R, LFE
Sampling rate : 48.0 kHz
Frame rate : 31.250 FPS (1536 SPF)
Bit depth : 16 bits
Compression mode : Lossy
Stream size : 485 MiB (17%)
Language : English
Service kind : Complete Main
Default : Yes
Forced : No

Text
ID : 3
Format : VobSub
Codec ID : S_VOBSUB
Codec ID/Info : Picture based subtitle format used on DVDs
Duration : 2 h 28 min
Bit rate : 11.5 kb/s
Count of elements : 2274
Stream size : 12.2 MiB (0%)
Language : English
Default : No
Forced : No

Menu
00:00:00.000 : en:(01)00:00:00:000
00:02:34.863 : en:(02)00:02:34:863
00:05:57.690 : en:(03)00:05:57:690
00:07:43.171 : en:(04)00:07:43:171
00:11:38.572 : en:(05)00:11:38:572
00:13:52.206 : en:(06)00:13:52:206
00:16:55.723 : en:(07)00:16:55:723
00:21:13.981 : en:(08)00:21:13:981
00:23:05.300 : en:(09)00:23:05:300
00:25:03.418 : en:(10)00:25:03:418
00:26:53.528 : en:(11)00:26:53:528
00:30:38.753 : en:(12)00:30:38:753
00:35:13.945 : en:(13)00:35:13:945
00:42:52.653 : en:(14)00:42:52:653
00:46:30.871 : en:(15)00:46:30:871
00:49:54.241 : en:(16)00:49:54:241
00:53:11.313 : en:(17)00:53:11:313
00:55:22.152 : en:(18)00:55:22:152
00:58:14.032 : en:(19)00:58:14:032
01:01:12.001 : en:(20)01:01:12:001
01:08:54.964 : en:(21)01:08:54:964
01:13:09.676 : en:(22)01:13:09:676
01:17:30.187 : en:(23)01:17:30:187
01:22:17.849 : en:(24)01:22:17:849
01:23:37.721 : en:(25)01:23:37:721
01:28:27.343 : en:(26)01:28:27:343
01:31:59.347 : en:(27)01:31:59:347
01:37:10.157 : en:(28)01:37:10:157
01:42:41.864 : en:(29)01:42:41:864
01:44:55.914 : en:(30)01:44:55:914
01:49:13.797 : en:(31)01:49:13:797
01:50:12.397 : en:(32)01:50:12:397
01:54:30.989 : en:(33)01:54:30:989
01:56:32.568 : en:(34)01:56:32:568
02:03:14.678 : en:(35)02:03:14:678
02:04:16.490 : en:(36)02:04:16:490
02:05:53.754 : en:(37)02:05:53:754
02:09:36.894 : en:(38)02:09:36:894
02:12:02.080 : en:(39)02:12:02:080
02:14:54.294 : en:(40)02:14:54:294
02:17:39.417 : en:(41)02:17:39:417
02:21:50.835 : en:(42)02:21:50:835
02:24:38.461 : en:(43)02:24:38:461
02:27:13.741 : en:(44)02:27:13:741
02:29:29.168 : en:(45)02:29:29:168
02:31:15.858 : en:(46)02:31:15:858





The Music Man (1962)


The Music Man (1962)


The Music Man (1962)


The Music Man (1962)


The Music Man (1962)