The Perfect Bride: Wedding Bells (2018)

Posted By: Tavaz
720p (HD) / HDTV IMDb
The Perfect Bride: Wedding Bells (2018)

The Perfect Bride: Wedding Bells (2018)
HDTV | MKV | 1278x716 | English | H264 @ 3133 kbps | AC-3 @ 384 kbps | 1 h 23 min | 2.06 GiB
Subtitles: English
Genre: Romance, TV Movie

Former marriage counselor turned fitness instructor Molly White has built a popular brand of workout classes, while her successful wedding photographer boyfriend Nick is branching out into art photography. Molly and Nick are very much in love and about to take the plunge by getting married, but life’s complexities combined with wedding planning are making their trip to the altar a challenge. When thoughts of postponement crop up, can this perfectly matched bride and groom work together to make their wedding happen?

806db32aaa5d405fbd4a796b8281ac21.mkv (2.1 GB)



General
Unique ID : 219496695300964167774449208081243591810 (0xA521869BF860CFC0B109FAD4E77A5482)
Complete name : ./806db32aaa5d405fbd4a796b8281ac21.mkv
Format : Matroska
Format version : Version 4 / Version 2
File size : 2.06 GiB
Duration : 1 h 23 min
Overall bit rate : 3 520 kb/s
Encoded date : UTC 2018-06-10 14:55:56
Writing application : mkvmerge v9.4.0 ('Knurl') 64bit
Writing library : libebml v1.3.4 + libmatroska v1.4.5

Video
ID : 1
Format : AVC
Format/Info : Advanced Video Codec
Format profile : High@L4.1
Format settings : CABAC / 5 Ref Frames
Format settings, CABAC : Yes
Format settings, RefFrames : 5 frames
Codec ID : V_MPEG4/ISO/AVC
Duration : 1 h 23 min
Bit rate : 3 134 kb/s
Width : 1 278 pixels
Height : 716 pixels
Display aspect ratio : 16:9
Frame rate mode : Constant
Frame rate : 23.976 (24000/1001) FPS
Color space : YUV
Chroma subsampling : 4:2:0
Bit depth : 8 bits
Scan type : Progressive
Bits/(Pixel*Frame) : 0.143
Stream size : 1.83 GiB (89%)
Writing library : x264 core 155 r2901 7d0ff22
Encoding settings : cabac=1 / ref=5 / deblock=1:0:0 / analyse=0x3:0x113 / me=hex / subme=8 / psy=1 / psy_rd=1.00:0.00 / mixed_ref=1 / me_range=16 / chroma_me=1 / trellis=2 / 8x8dct=1 / cqm=0 / deadzone=21,11 / fast_pskip=1 / chroma_qp_offset=-2 / threads=12 / lookahead_threads=2 / sliced_threads=0 / nr=0 / decimate=1 / interlaced=0 / bluray_compat=0 / constrained_intra=0 / bframes=3 / b_pyramid=2 / b_adapt=1 / b_bias=0 / direct=3 / weightb=1 / open_gop=0 / weightp=2 / keyint=250 / keyint_min=23 / scenecut=40 / intra_refresh=0 / rc_lookahead=50 / rc=crf / mbtree=1 / crf=18.0 / qcomp=0.60 / qpmin=0 / qpmax=69 / qpstep=4 / ip_ratio=1.40 / aq=1:1.00
Default : Yes
Forced : No

Audio
ID : 2
Format : AC-3
Format/Info : Audio Coding 3
Format settings, Endianness : Big
Codec ID : A_AC3
Duration : 1 h 23 min
Bit rate mode : Constant
Bit rate : 384 kb/s
Channel(s) : 6 channels
Channel positions : Front: L C R, Side: L R, LFE
Sampling rate : 48.0 kHz
Frame rate : 31.250 FPS (1536 SPF)
Bit depth : 16 bits
Compression mode : Lossy
Stream size : 230 MiB (11%)
Language : English
Service kind : Complete Main
Default : Yes
Forced : No

Text
ID : 3
Format : UTF-8
Codec ID : S_TEXT/UTF8
Codec ID/Info : UTF-8 Plain Text
Duration : 1 h 23 min
Bit rate : 140 b/s
Count of elements : 2462
Stream size : 85.9 KiB (0%)
Language : English
Default : No
Forced : No





The Perfect Bride: Wedding Bells (2018)


The Perfect Bride: Wedding Bells (2018)


The Perfect Bride: Wedding Bells (2018)


The Perfect Bride: Wedding Bells (2018)


The Perfect Bride: Wedding Bells (2018)