Subcategories

Memento Films - The Propaganda Game (2015)

Posted By: Tutorial
Memento Films - The Propaganda Game (2015)

Memento Films - The Propaganda Game (2015)
DVD-Rip | 1024 x 576 | .MP4/AVC @ 1476 Kbps | 1h 33mn | English AAC 160 Kbps, 2 channels | 1.08 GB
Genre: Documentary

North Korea, formerly known as the hermit kingdom, is perhaps the largest source of instability as regards world peace. Its border is one of the most militarized in the world.
The lack of impartial information, both inside and coming out of the country, is the perfect setting for a propaganda war, which will be analyzed in the film through numerous examples of the surprising way in which information is manipulated, in and about North Korea. Alejandro Cao de Benos, the sole foreigner who works for the DPRK Government and many locals will show us their vision of the reality in North Korea. The other side of the story will be reflected through interviews to South Korean citizens, human rights advocates, diplomats, propaganda experts, etc.

General
Complete name : The.Propaganda.Game.mp4
Format : MPEG-4
Format profile : Base Media / Version 2
Codec ID : mp42
File size : 1.08 GiB
Duration : 1h 33mn
Overall bit rate mode : Variable
Overall bit rate : 1 642 Kbps
Encoded date : UTC 2016-08-30 16:16:12
Tagged date : UTC 2016-08-30 16:16:12
Writing application : HandBrake 0.10.5 2016021100

Video
ID : 1
Format : AVC
Format/Info : Advanced Video Codec
Format profile : High@L4.1
Format settings, CABAC : Yes
Format settings, ReFrames : 4 frames
Codec ID : avc1
Codec ID/Info : Advanced Video Coding
Duration : 1h 33mn
Bit rate : 1 476 Kbps
Width : 1 024 pixels
Height : 576 pixels
Display aspect ratio : 16:9
Frame rate mode : Constant
Frame rate : 25.000 fps
Color space : YUV
Chroma subsampling : 4:2:0
Bit depth : 8 bits
Scan type : Progressive
Bits/(Pixel*Frame) : 0.100
Stream size : 992 MiB (90%)
Writing library : x264 core 142 r2479 dd79a61
Encoding settings : cabac=1 / ref=1 / deblock=1:0:0 / analyse=0x3:0x3 / me=dia / subme=1 / psy=1 / psy_rd=1.00:0.00 / mixed_ref=0 / me_range=16 / chroma_me=1 / trellis=0 / 8x8dct=1 / cqm=0 / deadzone=21,11 / fast_pskip=1 / chroma_qp_offset=0 / threads=3 / lookahead_threads=1 / sliced_threads=0 / nr=0 / decimate=1 / interlaced=0 / bluray_compat=0 / constrained_intra=0 / bframes=3 / b_pyramid=2 / b_adapt=1 / b_bias=0 / direct=1 / weightb=1 / open_gop=0 / weightp=1 / keyint=250 / keyint_min=25 / scenecut=40 / intra_refresh=0 / rc_lookahead=0 / rc=crf / mbtree=0 / crf=22.0 / qcomp=0.60 / qpmin=0 / qpmax=69 / qpstep=4 / vbv_maxrate=62500 / vbv_bufsize=78125 / crf_max=0.0 / nal_hrd=none / filler=0 / ip_ratio=1.40 / pb_ratio=1.30 / aq=1:1.00
Encoded date : UTC 2016-08-30 16:16:12
Tagged date : UTC 2016-08-30 16:16:12
Color primaries : BT.470-6 System B, BT.470-6 System G, BT.601-6 625, BT.1358 625, BT.1700 625 PAL, BT.1700 625 SECAM
Transfer characteristics : BT.709-5, BT.1361
Matrix coefficients : BT.601-6 525, BT.1358 525, BT.1700 NTSC, SMPTE 170M

Audio
ID : 2
Format : AAC
Format/Info : Advanced Audio Codec
Format profile : LC
Codec ID : 40
Duration : 1h 33mn
Bit rate mode : Variable
Bit rate : 160 Kbps
Channel(s) : 2 channels
Channel positions : Front: L R
Sampling rate : 48.0 KHz
Compression mode : Lossy
Stream size : 108 MiB (10%)
Title : Stereo
Encoded date : UTC 2016-08-30 16:16:12
Tagged date : UTC 2016-08-30 16:16:12
Screenshots

Memento Films - The Propaganda Game (2015)

Memento Films - The Propaganda Game (2015)

Memento Films - The Propaganda Game (2015)

Welcome to my blog - daily update!

Memento Films - The Propaganda Game (2015)