Tags
Language
Tags

Brothers by Blood (2021)

Posted By: Tavaz
1080p (FullHD) / BDRip IMDb
Brothers by Blood (2021)

Brothers by Blood (2021)
BDRip | MKV | 1920x808 | Français / English | H264 @ 9143 kbps | DTS @ 1509 kbps | 1 h 30 min | 7.65 GiB
Subtitles: Français
Genre: Crime, Action, Drama

Peter and Michael, raised on the streets of Philadelphia, are the children of Irish mob members, forever linked by the crimes of their fathers. 30 years later, Michael now runs the criminal organization and lusts for more power, his dangerous antics frequently held in check by his cautious cousin Peter. Haunted by the death of his sister, whose passing destroyed both his parents, Peter is caught between the dreams of childhood and the realities of his life as an enforcer. His only reprieve is a local boxing gym, a sanctuary that is quickly threatened as Michael’s desire for control escalates.

the.sound.of.philadelphia.2020.multi.1080p.bluray.x264-ulysse.mkv (7.6 GB)



General
Unique ID : 259064412354040263666530023596120714554 (0xC2E5FDAD71492CF2B4D0C95931E1AD3A)
Complete name : ./the.sound.of.philadelphia.2020.multi.1080p.bluray.x264-ulysse.mkv
Format : Matroska
Format version : Version 4 / Version 2
File size : 7.65 GiB
Duration : 1 h 30 min
Overall bit rate : 12.2 Mb/s
Encoded date : UTC 2021-08-24 05:12:47
Writing application : mkvmerge v60.0.0 ('Are We Copies?') 64-bit
Writing library : libebml v1.4.2 + libmatroska v1.6.4

Video
ID : 1
Format : AVC
Format/Info : Advanced Video Codec
Format profile : High@L4.1
Format settings : CABAC / 5 Ref Frames
Format settings, CABAC : Yes
Format settings, RefFrames : 5 frames
Codec ID : V_MPEG4/ISO/AVC
Duration : 1 h 30 min
Bit rate : 9 143 kb/s
Width : 1 920 pixels
Height : 808 pixels
Display aspect ratio : 2.40:1
Frame rate mode : Constant
Frame rate : 23.976 (24000/1001) FPS
Color space : YUV
Chroma subsampling : 4:2:0
Bit depth : 8 bits
Scan type : Progressive
Bits/(Pixel*Frame) : 0.246
Stream size : 5.75 GiB (75%)
Writing library : x264 core 164 r3065 ae03d92
Encoding settings : cabac=1 / ref=5 / deblock=1:0:0 / analyse=0x3:0x113 / me=umh / subme=8 / psy=1 / psy_rd=1.00:0.00 / mixed_ref=1 / me_range=16 / chroma_me=1 / trellis=1 / 8x8dct=1 / cqm=0 / deadzone=21,11 / fast_pskip=1 / chroma_qp_offset=-2 / threads=18 / lookahead_threads=3 / sliced_threads=0 / nr=0 / decimate=1 / interlaced=0 / bluray_compat=0 / constrained_intra=0 / bframes=3 / b_pyramid=2 / b_adapt=2 / b_bias=0 / direct=3 / weightb=1 / open_gop=0 / weightp=2 / keyint=240 / keyint_min=24 / scenecut=40 / intra_refresh=0 / rc_lookahead=50 / rc=2pass / mbtree=1 / bitrate=9143 / ratetol=1.0 / qcomp=0.60 / qpmin=0 / qpmax=69 / qpstep=4 / cplxblur=20.0 / qblur=0.5 / ip_ratio=1.40 / aq=1:1.00
Language : English
Default : Yes
Forced : No

Audio #1
ID : 2
Format : DTS
Format/Info : Digital Theater Systems
Mode : 16
Format settings, Endianness : Big
Codec ID : A_DTS
Duration : 1 h 30 min
Bit rate mode : Constant
Bit rate : 1 509 kb/s
Channel(s) : 6 channels
Channel positions : Front: L C R, Side: L R, LFE
Sampling rate : 48.0 kHz
Frame rate : 93.750 FPS (512 SPF)
Bit depth : 24 bits
Compression mode : Lossy
Stream size : 972 MiB (12%)
Title : French DTS 5.1
Language : French
Default : Yes
Forced : No

Audio #2
ID : 3
Format : DTS
Format/Info : Digital Theater Systems
Mode : 16
Format settings, Endianness : Big
Codec ID : A_DTS
Duration : 1 h 30 min
Bit rate mode : Constant
Bit rate : 1 509 kb/s
Channel(s) : 6 channels
Channel positions : Front: L C R, Side: L R, LFE
Sampling rate : 48.0 kHz
Frame rate : 93.750 FPS (512 SPF)
Bit depth : 24 bits
Compression mode : Lossy
Stream size : 972 MiB (12%)
Title : English DTS 5.1
Language : English
Default : Yes
Forced : No

Text
ID : 4
Format : UTF-8
Codec ID : S_TEXT/UTF8
Codec ID/Info : UTF-8 Plain Text
Duration : 1 h 29 min
Bit rate : 36 b/s
Count of elements : 846
Stream size : 24.1 KiB (0%)
Title : French SRT
Language : French
Default : No
Forced : No

Menu
00:00:00.000 : :Chapitre 01
00:08:12.617 : :Chapitre 02
00:15:21.212 : :Chapitre 03
00:22:12.957 : :Chapitre 04
00:29:40.070 : :Chapitre 05
00:39:25.738 : :Chapitre 06
00:49:57.286 : :Chapitre 07
00:56:11.660 : :Chapitre 08
01:03:42.652 : :Chapitre 09
01:09:24.535 : :Chapitre 10
01:15:39.827 : :Chapitre 11
01:23:44.228 : :Chapitre 12





Brothers by Blood (2021)


Brothers by Blood (2021)


Brothers by Blood (2021)


Brothers by Blood (2021)


Brothers by Blood (2021)