Tags
Language
Tags

The Superdeep (2020)

Posted By: Tavaz
720p (HD) / BDRip IMDb
The Superdeep (2020)

The Superdeep (2020)
BDRip | MKV | 1280x720 | English | H264 @ 2560 kbps | AC-3 @ 448 kbps | 1 h 55 min | 2.42 GiB
Subtitles: English
Genre: Horror, Science Fiction, Thriller

The film is based on real events when, in the 1970s, the deepest well in the world with a depth of more than 12 thousand meters was drilled in Murmansk Region for research purposes. During drilling, seismic sensors began to pick up strange sounds, an explosion occurred that led to mystical events.

b30043696fb5c96d78d305e6762c6f98.mkv (2.4 GB)



General
Unique ID : 93331849712921472758062170290063035125 (0x46370F7735318104F938AD3A78E24AF5)
Complete name : ./b30043696fb5c96d78d305e6762c6f98.mkv
Format : Matroska
Format version : Version 4 / Version 2
File size : 2.42 GiB
Duration : 1 h 55 min
Overall bit rate : 3 009 kb/s
Movie name : The.Superdeep.2020.720p.BluRay.x264-x0r
Encoded date : UTC 2021-06-23 14:50:17
Writing application : mkvmerge v7.7.0 ('Six Voices') 64bit built on Mar 1 2015 01:50:05
Writing library : libebml v1.3.1 + libmatroska v1.4.2

Video
ID : 1
Format : AVC
Format/Info : Advanced Video Codec
Format profile : High@L4.1
Format settings : CABAC / 8 Ref Frames
Format settings, CABAC : Yes
Format settings, RefFrames : 8 frames
Codec ID : V_MPEG4/ISO/AVC
Duration : 1 h 55 min
Bit rate : 2 560 kb/s
Width : 1 280 pixels
Height : 720 pixels
Display aspect ratio : 16:9
Frame rate mode : Constant
Frame rate : 24.000 FPS
Color space : YUV
Chroma subsampling : 4:2:0
Bit depth : 8 bits
Scan type : Progressive
Bits/(Pixel*Frame) : 0.116
Stream size : 2.06 GiB (85%)
Writing library : x264 core 155 r2917 0a84d98
Encoding settings : cabac=1 / ref=8 / deblock=1:-2:-2 / analyse=0x3:0x133 / me=umh / subme=9 / psy=1 / psy_rd=1.00:0.25 / mixed_ref=1 / me_range=24 / chroma_me=1 / trellis=2 / 8x8dct=1 / cqm=0 / deadzone=21,11 / fast_pskip=1 / chroma_qp_offset=-4 / threads=22 / lookahead_threads=2 / sliced_threads=0 / nr=0 / decimate=1 / interlaced=0 / bluray_compat=0 / constrained_intra=0 / bframes=4 / b_pyramid=2 / b_adapt=2 / b_bias=0 / direct=3 / weightb=1 / open_gop=0 / weightp=2 / keyint=240 / keyint_min=24 / scenecut=40 / intra_refresh=0 / rc_lookahead=120 / rc=2pass / mbtree=1 / bitrate=2560 / ratetol=1.0 / qcomp=0.60 / qpmin=0 / qpmax=69 / qpstep=4 / cplxblur=20.0 / qblur=0.5 / vbv_maxrate=20000 / vbv_bufsize=25000 / nal_hrd=none / filler=0 / ip_ratio=1.40 / aq=1:1.00
Language : English
Default : Yes
Forced : No
Color range : Limited
Color primaries : BT.709
Transfer characteristics : BT.709
Matrix coefficients : BT.709

Audio
ID : 2
Format : AC-3
Format/Info : Audio Coding 3
Format settings, Endianness : Big
Codec ID : A_AC3
Duration : 1 h 55 min
Bit rate mode : Constant
Bit rate : 448 kb/s
Channel(s) : 6 channels
Channel positions : Front: L C R, Side: L R, LFE
Sampling rate : 48.0 kHz
Frame rate : 31.250 FPS (1536 SPF)
Bit depth : 16 bits
Compression mode : Lossy
Delay relative to video : -5 ms
Stream size : 369 MiB (15%)
Title : Surround
Language : English
Service kind : Complete Main
Default : Yes
Forced : No

Text
ID : 3
Format : UTF-8
Codec ID : S_TEXT/UTF8
Codec ID/Info : UTF-8 Plain Text
Duration : 1 h 47 min
Bit rate : 27 b/s
Count of elements : 923
Stream size : 22.0 KiB (0%)
Language : English
Default : Yes
Forced : No

Menu
00:00:00.000 : :Chapter 1
00:12:00.333 : :Chapter 2
00:24:20.667 : :Chapter 3
00:35:11.750 : :Chapter 4
00:46:38.458 : :Chapter 5
00:54:46.542 : :Chapter 6
01:03:13.958 : :Chapter 7
01:08:16.333 : :Chapter 8
01:14:42.333 : :Chapter 9
01:25:33.333 : :Chapter 10
01:36:23.833 : :Chapter 11
01:48:00.458 : :Chapter 12





The Superdeep (2020)


The Superdeep (2020)


The Superdeep (2020)


The Superdeep (2020)


The Superdeep (2020)