Tags
Language
Tags

The Trip S03E01- 06

Posted By: Tavaz
1080p (FullHD) / WEB-DL IMDb
The Trip S03E01- 06

The Trip S03E01- 06
WEB-DL | MKV | 1920x1080 | English | H264 @ 7198 kbps | E-AC-3 @ 640 kbps | 29 min 21 s | 1.61 GiB
Subtitles: English
Genre: Comedy

Steve is asked to review restaurants for the UK's Observer who is joined on a working road trip by his friend Rob who fills in at the last minute when Coogan's romantic relationship falls apart.



The.Trip.S03E01.Txoko.1080p.AMZN.WEB-DL.DD+5.1.H.264-Cinefeel.mkv (1.6 GB)



General
Unique ID : 206968070271649741372758469531156886320 (0x9BB499B442ED4F5BB8C4AC7605003330)
Complete name : ./The.Trip.S03E01.Txoko.1080p.AMZN.WEB-DL.DD+5.1.H.264-Cinefeel.mkv
Format : Matroska
Format version : Version 4 / Version 2
File size : 1.61 GiB
Duration : 29 min 21 s
Overall bit rate mode : Variable
Overall bit rate : 7 840 kb/s
Encoded date : UTC 2017-11-26 19:15:55
Writing application : mkvmerge v13.0.0 ('The Juggler') 64bit
Writing library : libebml v1.3.4 + libmatroska v1.4.5

Video
ID : 1
Format : AVC
Format/Info : Advanced Video Codec
Format profile : High@L4
Format settings : CABAC / 4 Ref Frames
Format settings, CABAC : Yes
Format settings, RefFrames : 4 frames
Codec ID : V_MPEG4/ISO/AVC
Duration : 29 min 21 s
Bit rate mode : Variable
Bit rate : 7 198 kb/s
Maximum bit rate : 15.0 Mb/s
Width : 1 920 pixels
Height : 1 080 pixels
Display aspect ratio : 16:9
Frame rate mode : Constant
Frame rate : 25.000 FPS
Color space : YUV
Chroma subsampling : 4:2:0
Bit depth : 8 bits
Scan type : Progressive
Bits/(Pixel*Frame) : 0.139
Stream size : 1.48 GiB (92%)
Default : Yes
Forced : No
Color range : Limited
Color primaries : BT.709
Transfer characteristics : BT.709
Matrix coefficients : BT.709

Audio
ID : 2
Format : E-AC-3
Format/Info : Enhanced Audio Coding 3
Format settings, Endianness : Big
Codec ID : A_EAC3
Duration : 29 min 21 s
Bit rate mode : Constant
Bit rate : 640 kb/s
Channel(s) : 6 channels
Channel positions : Front: L C R, Side: L R, LFE
Sampling rate : 48.0 kHz
Frame rate : 187.500 FPS (256 SPF)
Compression mode : Lossy
Stream size : 134 MiB (8%)
Language : English
Service kind : Complete Main
Default : Yes
Forced : No

Text
ID : 3
Format : UTF-8
Codec ID : S_TEXT/UTF8
Codec ID/Info : UTF-8 Plain Text
Duration : 28 min 40 s
Bit rate : 120 b/s
Count of elements : 631
Stream size : 25.4 KiB (0%)
Language : English
Default : No
Forced : No





The Trip S03E01- 06


The Trip S03E01- 06


The Trip S03E01- 06


The Trip S03E01- 06


The Trip S03E01- 06

All episodes