Tags
Language
Tags

The Arranged Gay Marriage Scam (2020)

Posted By: notbanned
1080p (FullHD) / HDTV
The Arranged Gay Marriage Scam (2020)

The Arranged Gay Marriage Scam (2020)
HDTV | 1920x1080 | .MKV/AVC @ 2994 Kbps | 21 min 27 s | 489 MiB
Audio: English MP2 192 kbps, 2 channels | Subs: English
Genre: Documentary

The Arranged Gay Marriage Bureau provides a revolutionary arranged marriage system exclusively for gay men and women. With over 3,700 clients worldwide, the Bureau claims to fulfil people’s dreams and help find them a partner for a substantial fee. As host Reeta Loi tries to find a wife through the service, the reality becomes clear that she and the other people that are using the service are being scammed.

General
Unique ID : 136298220751924873577519457082442483033 (0x668A151CD6890155CC43A9F8070F8559)
Complete name : The.Arranged.Gay.Marriage.Scam.2020.1080p.mkv
Format : Matroska
Format version : Version 4 / Version 2
File size : 489 MiB
Duration : 21 min 27 s
Overall bit rate : 3 188 kb/s

Video
ID : 1
Format : AVC
Format/Info : Advanced Video Codec
Format profile : High@L4
Format settings, CABAC : Yes
Format settings, ReFrames : 4 frames
Codec ID : V_MPEG4/ISO/AVC
Duration : 21 min 27 s
Bit rate : 2 994 kb/s
Width : 1 920 pixels
Height : 1 080 pixels
Display aspect ratio : 16:9
Frame rate mode : Variable
Frame rate : 25.061 FPS
Original frame rate : 25.000 FPS
Standard : Component
Color space : YUV
Chroma subsampling : 4:2:0
Bit depth : 8 bits
Scan type : MBAFF
Scan type, store method : Interleaved fields
Scan order : Top Field First
Bits/(Pixel*Frame) : 0.058
Stream size : 460 MiB (94%)
Default : Yes
Forced : No
Color range : Limited
Color primaries : BT.709
Transfer characteristics : BT.709
Matrix coefficients : BT.709

Audio
ID : 2
Format : MPEG Audio
Format version : Version 1
Format profile : Layer 2
Codec ID : A_MPEG/L2
Codec ID/Hint : MP2
Duration : 21 min 27 s
Bit rate mode : Constant
Bit rate : 192 kb/s
Channel(s) : 2 channels
Sampling rate : 48.0 kHz
Frame rate : 41.667 FPS (1152 spf)
Compression mode : Lossy
Stream size : 29.5 MiB (6%)
Language : English
Default : Yes
Forced : No

Text
ID : 3
Format : UTF-8
Codec ID : S_TEXT/UTF8
Codec ID/Info : UTF-8 Plain Text
Duration : 21 min 25 s
Bit rate : 88 b/s
Count of elements : 350
Stream size : 13.9 KiB (0%)
Language : English
Default : No
Forced : No


Screenshots:

The Arranged Gay Marriage Scam (2020)

The Arranged Gay Marriage Scam (2020)

The Arranged Gay Marriage Scam (2020)

The Arranged Gay Marriage Scam (2020)