Tags
Language
Tags

History Channel - The Crusades: Crescent and the Cross (2009)

Posted By: Tutorial
SD / DVDRip
History Channel - The Crusades: Crescent and the Cross (2009)

History Channel - The Crusades: Crescent and the Cross (2009)
DVDRip | 720 x 400 | .AVI/XviD @ 2173 Kbps | 4x~42mn | 2.74 GB
Audio: English AC-3 128 Kbps, 2 channels | Subs: None
Genre: Documentary

The Crusades: Crescent & The Cross presents the epic battle between two Middle Age superpowers: the Christian Crusaders and the Muslims. Fought over two centuries, the conflict decided the fate of the Holy Land of the Middle East. Only a tiny strip of land, just a few hundred miles long, it contained the ultimate prize, the city of Jerusalem. Experience the murder, treachery, and bloodshed of the first, second, and third Crusades through the eyes of key historical figures such as Richard the Lionheart and Saladin, King Louis VII, and Nur al-Din. With breathtaking CGI-enhanced visuals, heart-pounding re-enactments, and stunning footage from rarely seen locations, this documentary brings the legendary chapter of history alive, and offers fresh insight for a new generation in conflict. Sound familiar? It should, because although the events depicted in the History Channel's The Crusades - Crescent & The Cross took place nearly a thousand years ago, they are but a distant mirror to what's going on in the Middle East right now.

Part 1: Disc One the First Crusade Part 1
We will follow the two great waves of crusader armies - that of the nobility led by Count Raymond IV of Toulouse, and that of the commoners exhorted into mobilisation by Peter the Hermit and Walter the Penniless-en route to Constantinopole and from there across the Anatolian plains to Jerusalem. With CGI-enhanced visuals we will reconstruct key battles to learn how the crusaders would manage to conquer one city after another without supply lines.


Part 2: Disc One the First Crusade Part 2
Upon conquering Jerusalem, the crusader-settlers were faced with an entirely new dilemma: their survival in a hostile territory far from home. This programme will tell the untold story of the crusades–one that charts the complexity of Muslim-Christian relations. In the wake of conquest, the crusader-settlers embark on lavish building projects in their new territory, not only refurbishing the Christian holy sites such as the Church of the Holy Sepulchre, but also constructing a fantastic chain of fortresses along the Mediterranean perimeter of the kingdom to protect it from invasion.


Part 3: Disc Two the Second and Third Crusades
An enigma even in his own time, Saladin became a hero in the West long before his rediscovery in the Muslim world in the nineteenth and twentieth centuries. His famous truce with Richard the Lionheart is the most iconic moment in the entire history of the crusades. But why did Saladin negotiate a truce when he won nearly every battle? This programme will tease out the hidden history of Saladin, Richard and the Third Crusade. Saladin unexpectedly rises to power upon the death of Nur Al-Din. Under him 'jihad', or Islamic counter-crusade, becomes a coherent rallying concept for the Muslim world. Unifying Syria and Egypt, he defeats the crusaders at Hattin to reconquer Jerusalem in 1187.


Part 4: Disc Three the Fourth Crusade
At the death of Saladin the Crusader kingdom has been reduced to a narrow strip of land and a handful of ports. A fourth crusade never reaches the Holy Land, setting its sights instead on Constantinopole. One crusade after naother is launched to shore up the faltering crusader territories. But finally the crusader settlers are evicted by the Mamluks in 1291. Through the eyes of Mongols, Mamluks and the beleaguered Crusaders we will witness the collapse of an empire of faith.

General
Complete name : History.Ch.The.Crusades.Crescent.and.the.Cross.1of4.Disc.One.The.First.Crusade.Part.1.avi
Format : AVI
Format/Info : Audio Video Interleave
File size : 702 MiB
Duration : 42 min 27 s
Overall bit rate : 2 311 kb/s
Director : Done with AutoMKV! 0.98.4 http://forum.doom9.org/showthread.php?t=140178
Writing application : VirtualDubMod 1.5.10.2 (build 2542/release)
Writing library : VirtualDubMod build 2542/release

Video
ID : 0
Format : MPEG-4 Visual
Format profile : Advanced Simple@L5
Format settings, BVOP : 2
Format settings, QPel : No
Format settings, GMC : No warppoints
Format settings, Matrix : Custom
Codec ID : XVID
Codec ID/Hint : XviD
Duration : 42 min 27 s
Bit rate : 2 173 kb/s
Width : 720 pixels
Height : 400 pixels
Display aspect ratio : 16:9
Frame rate : 25.000 FPS
Color space : YUV
Chroma subsampling : 4:2:0
Bit depth : 8 bits
Scan type : Progressive
Compression mode : Lossy
Bits/(Pixel*Frame) : 0.302
Stream size : 660 MiB (94%)
Writing library : XviD 1.2.1 (UTC 2008-12-04)

Audio
ID : 1
Format : AC-3
Format/Info : Audio Coding 3
Format settings, Endianness : Big
Codec ID : 2000
Duration : 42 min 27 s
Bit rate mode : Constant
Bit rate : 128 kb/s
Channel(s) : 2 channels
Channel positions : Front: L R
Sampling rate : 48.0 kHz
Frame rate : 31.250 FPS (1536 spf)
Bit depth : 16 bits
Compression mode : Lossy
Stream size : 38.9 MiB (6%)
Alignment : Split accross interleaves
Interleave, duration : 40 ms (1.00 video frame)
Interleave, preload duration : 500 ms
Service kind : Complete Main
Screenshots

History Channel - The Crusades: Crescent and the Cross (2009)

History Channel - The Crusades: Crescent and the Cross (2009)

History Channel - The Crusades: Crescent and the Cross (2009)

Welcome to my blog - daily update!