The Dark Matter of Love (2012)

Posted By: Tutorial
1080p (FullHD) / WEBRip IMDb
The Dark Matter of Love (2012)

The Dark Matter of Love (2012)
WEBRip | 1920 x 1080 | .MKV/AVC @ 14.0 Mbps | 1h 32mn | 9.48 GB
Audio: English E-AC-3 640 Kbps, 6 channels | Subs: English
Genre: Documentary

Documentary on the psychological aspects of growing up with and without parental love. It centers around the Diaz family, who chooses to adopt three orphans from Russia, and how their new and old kids handle family together.

General
Unique ID : 198529867076625132388659335592104107075 (0x955B762A7CD1F04DB58D39267A331C43)
Complete name : The.Dark.Matter.of.Love.2014.1080p.WEBRip.mkv
Format : Matroska
Format version : Version 4 / Version 2
File size : 9.48 GiB
Duration : 1 h 32 min
Overall bit rate mode : Variable
Overall bit rate : 14.6 Mb/s
Encoded date : UTC 2016-09-19 04:42:25
Writing application : mkvmerge v8.3.0 ('Over the Horizon') 64bit
Writing library : libebml v1.3.1 + libmatroska v1.4.2

Video
ID : 2
Format : AVC
Format/Info : Advanced Video Codec
Format profile : High@L4
Format settings, CABAC : Yes
Format settings, ReFrames : 4 frames
Codec ID : V_MPEG4/ISO/AVC
Duration : 1 h 32 min
Bit rate mode : Variable
Bit rate : 14.0 Mb/s
Maximum bit rate : 15.0 Mb/s
Width : 1 920 pixels
Height : 1 080 pixels
Display aspect ratio : 16:9
Frame rate mode : Constant
Frame rate : 25.000 FPS
Color space : YUV
Chroma subsampling : 4:2:0
Bit depth : 8 bits
Scan type : Progressive
Bits/(Pixel*Frame) : 0.269
Stream size : 9.06 GiB (96%)
Writing library : x264 core 148 r2623 d5b2374
Encoding settings : cabac=1 / ref=4 / deblock=1:-1:-1 / analyse=0x3:0x133 / me=umh / subme=9 / psy=1 / psy_rd=1.00:0.15 / mixed_ref=1 / me_range=24 / chroma_me=1 / trellis=2 / 8x8dct=1 / cqm=0 / deadzone=21,11 / fast_pskip=1 / chroma_qp_offset=-3 / threads=34 / lookahead_threads=5 / sliced_threads=0 / nr=150 / decimate=1 / interlaced=0 / bluray_compat=0 / constrained_intra=0 / bframes=8 / b_pyramid=2 / b_adapt=2 / b_bias=0 / direct=3 / weightb=1 / open_gop=0 / weightp=2 / keyint=125 / keyint_min=63 / scenecut=0 / intra_refresh=0 / rc_lookahead=125 / rc=crf / mbtree=1 / crf=18.0 / qcomp=0.60 / qpmin=0 / qpmax=69 / qpstep=4 / vbv_maxrate=15000 / vbv_bufsize=31250 / crf_max=0.0 / nal_hrd=vbr / filler=0 / ip_ratio=1.40 / aq=3:1.00
Default : Yes
Forced : No
Color range : Limited
Color primaries : BT.709
Transfer characteristics : BT.709
Matrix coefficients : BT.709

Audio
ID : 1
Format : E-AC-3
Format/Info : Enhanced Audio Coding 3
Format settings, Endianness : Big
Codec ID : A_EAC3
Duration : 1 h 32 min
Bit rate mode : Constant
Bit rate : 640 kb/s
Channel(s) : 6 channels
Channel positions : Front: L C R, Side: L R, LFE
Sampling rate : 48.0 kHz
Frame rate : 187.500 FPS (256 spf)
Compression mode : Lossy
Stream size : 425 MiB (4%)
Language : English
Service kind : Complete Main
Default : Yes
Forced : No

Text
ID : 3
Format : UTF-8
Codec ID : S_TEXT/UTF8
Codec ID/Info : UTF-8 Plain Text
Duration : 1 h 31 min
Bit rate : 69 b/s
Count of elements : 1632
Stream size : 46.4 KiB (0%)
Default : Yes
Forced : No
Screenshots

The Dark Matter of Love (2012)

The Dark Matter of Love (2012)

The Dark Matter of Love (2012)

Welcome to my blog - daily update!

The Dark Matter of Love (2012)