Tags
Language
Tags
January 2023
Su Mo Tu We Th Fr Sa
1 2 3 4 5 6 7
8 9 10 11 12 13 14
15 16 17 18 19 20 21
22 23 24 25 26 27 28
29 30 31 1 2 3 4

Sit. Stay. Love. / The Dog Days of Christmas (2021)

Posted By: Without
1080p (FullHD) / WEB-DL IMDb
Sit. Stay. Love. / The Dog Days of Christmas (2021)

Sit. Stay. Love. / The Dog Days of Christmas (2021)
WEB-DL 1080p | MKV | 1 h 26 min | 5.88 GB | 1920x1080 | AVC@9521 kb/s | English AC3@224 kb/s, 2 ch
Subs: English
Genre: Family, Romance

After finishing a mission, aid worker Annie Blake is going home to Vermont to spend the holidays with her family. When the local animal shelter closes, Annie steps in to save it with the help of the local vet and old school nemesis, Dylan.



General
The.Dog.Days.of.Christmas.2022.1080p.AMZN.WEB-DL.DDP2.0.H.264-NTb.mkv
Format : Matroska
Format version : Version 4 / Version 2
File size : 5.88 GB
Duration : 1 h 26 min
Overall bit rate : 9747 kb/s
Writing application : mkvmerge v69.0.0 ('Day And Age') 64-bit
Writing library : libebml v1.4.2 + libmatroska v1.6.4

Video
ID : 1
Format : AVC
Format/Info : Advanced Video Codec
Format profile : High@L4
Format settings, CABAC : Yes
Format settings, ReFrames : 4 frames
Codec ID : V_MPEG4/ISO/AVC
Duration : 1 h 26 min
Bit rate mode : Constant
Bit rate : 9521 kb/s
Nominal bit rate : 10000 kb/s
Width : 1920 pixels
Height : 1080 pixels
Display aspect ratio : 16:9
Frame rate mode : Constant
Frame rate : 23.976 (24000/1001) FPS
Color space : YUV
Chroma subsampling : 4:2:0
Bit depth : 8 bits
Scan type : Progressive
Bits/(Pixel*Frame) : 0.192
Stream size : 5.75 GB (98%)
Default : Yes
Forced : No
Color range : Limited
Color primaries : BT.709
Transfer characteristics : BT.709
Matrix coefficients : BT.709

Audio
ID : 2
Format : E-AC-3
Format/Info : Enhanced Audio Coding 3
Format settings, Endianness : Big
Codec ID : A_EAC3
Duration : 1 h 26 min
Bit rate mode : Constant
Bit rate : 224 kb/s
Channel(s) : 2 channels
Channel positions : Front: L R
Sampling rate : 48.0 kHz
Frame rate : 187.500 FPS (256 spf)
Compression mode : Lossy
Stream size : 138 MB (2%)
Language : English
Default : Yes
Forced : No

Text #1
ID : 3
Format : UTF-8
Codec ID : S_TEXT/UTF8
Codec ID/Info : UTF-8 Plain Text
Duration : 1 h 25 min
Bit rate : 79 b/s
Count of elements : 1503
Stream size : 49.6 KiB (0%)
Language : English
Default : No
Forced : No

Text #2
ID : 4
Format : UTF-8
Codec ID : S_TEXT/UTF8
Codec ID/Info : UTF-8 Plain Text
Duration : 1 h 25 min
Bit rate : 84 b/s
Count of elements : 1631
Stream size : 53.5 KiB (0%)
Title : SDH
Language : English
Default : No
Forced : No



WEB-DL 1080p Screenshots

Sit. Stay. Love. / The Dog Days of Christmas (2021)

Sit. Stay. Love. / The Dog Days of Christmas (2021)

Sit. Stay. Love. / The Dog Days of Christmas (2021)

Sit. Stay. Love. / The Dog Days of Christmas (2021)



Come Visit My Blog (•‿•)