The Expanse S02E03 (2017)

Posted By: JohnSmith
The Expanse S02E03 (2017)

The Expanse S02E03 (2017)
HDRip | MKV / AVC@1500 kb/s | 720x400 | 40mn | 548 MB | English: AC3, 384 kb/s (6 ch)
WEB-DL 720p | MKV / AVC@4020 kb/s | 1280x720 | 40mn | 1.25 GB | English: AC3, 384 kb/s (6 ch)
WEB-DL 1080p | MKV / AVC@5155 kb/s | 1920x1080 | 40mn | 1.57 GB | English: AC3, 384 kb/s (6 ch)
Genre: Drama | Mystery | Sci-Fi | Thriller

A police detective in the asteroid belt, the first officer of an interplanetary ice freighter and an earth-bound United Nations executive slowly discover a vast conspiracy that threatens the Earth's rebellious colony on the asteroid belt.

IMDB - 1 win & 3 nominations.



General
Unique ID : 215468077654375858015702657611668782815 (0xA219A46C8DF9F4EAA999D4EFB859FEDF)
Complete name : A:\The.Expanse.S02E03.HDRip.mkv
Format : Matroska
Format version : Version 4 / Version 2
File size : 548 MiB
Duration : 40 min 36 s
Overall bit rate : 1 886 kb/s
Movie name : Static
Encoded date : UTC 2017-02-09 08:40:14
Writing application : mkvmerge v8.3.0 ('Over the Horizon') 64bit
Writing library : libebml v1.3.1 + libmatroska v1.4.2

Video
ID : 1
Format : AVC
Format/Info : Advanced Video Codec
Format profile : Baseline@L3.1
Format settings, CABAC : No
Format settings, ReFrames : 1 frame
Codec ID : V_MPEG4/ISO/AVC
Duration : 40 min 36 s
Bit rate : 1 500 kb/s
Width : 720 pixels
Height : 400 pixels
Display aspect ratio : 16:9
Frame rate mode : Constant
Frame rate : 23.976 (24000/1001) FPS
Color space : YUV
Chroma subsampling : 4:2:0
Bit depth : 8 bits
Scan type : Progressive
Bits/(Pixel*Frame) : 0.217
Stream size : 436 MiB (80%)
Writing library : x264 core 148 r2708 86b7198
Encoding settings : cabac=0 / ref=1 / deblock=1:0:0 / analyse=0x1:0x111 / me=hex / subme=2 / psy=1 / psy_rd=1.00:0.00 / mixed_ref=0 / me_range=16 / chroma_me=1 / trellis=0 / 8x8dct=0 / cqm=0 / deadzone=21,11 / fast_pskip=1 / chroma_qp_offset=0 / threads=12 / lookahead_threads=3 / sliced_threads=0 / nr=0 / decimate=1 / interlaced=0 / bluray_compat=0 / constrained_intra=0 / bframes=0 / weightp=0 / keyint=240 / keyint_min=24 / scenecut=40 / intra_refresh=0 / rc_lookahead=10 / rc=2pass / mbtree=1 / bitrate=1500 / ratetol=1.0 / qcomp=0.60 / qpmin=0 / qpmax=69 / qpstep=4 / cplxblur=20.0 / qblur=0.5 / vbv_maxrate=14000 / vbv_bufsize=14000 / nal_hrd=none / filler=0 / ip_ratio=1.40 / aq=1:1.00
Default : Yes
Forced : No
Color range : Limited
Color primaries : BT.709
Transfer characteristics : BT.709
Matrix coefficients : BT.709

Audio
ID : 2
Format : AC-3
Format/Info : Audio Coding 3
Mode extension : CM (complete main)
Format settings, Endianness : Big
Codec ID : A_AC3
Duration : 40 min 36 s
Bit rate mode : Constant
Bit rate : 384 kb/s
Channel(s) : 6 channels
Channel positions : Front: L C R, Side: L R, LFE
Sampling rate : 48.0 kHz
Frame rate : 31.250 FPS (1536 spf)
Compression mode : Lossy
Stream size : 112 MiB (20%)
Title : Surround
Language : English
Default : Yes
Forced : No





General
Unique ID : 187379551527232353713313476831580311670 (0x8CF7FD2A33EFABB3AC1BEA22E7CCD076)
Complete name : A:\The.Expanse.S02E03.720p.WEB-DL.mkv
Format : Matroska
Format version : Version 4 / Version 2
File size : 1.25 GiB
Duration : 40 min 36 s
Overall bit rate : 4 406 kb/s
Encoded date : UTC 2017-02-09 08:39:58
Writing application : mkvmerge v8.3.0 ('Over the Horizon') 64bit
Writing library : libebml v1.3.1 + libmatroska v1.4.2

Video
ID : 1
Format : AVC
Format/Info : Advanced Video Codec
Format profile : High@L3.1
Format settings, CABAC : No
Format settings, ReFrames : 2 frames
Codec ID : V_MPEG4/ISO/AVC
Duration : 40 min 36 s
Bit rate : 4 020 kb/s
Width : 1 280 pixels
Height : 720 pixels
Display aspect ratio : 16:9
Frame rate mode : Constant
Frame rate : 23.976 (23976/1000) FPS
Color space : YUV
Chroma subsampling : 4:2:0
Bit depth : 8 bits
Scan type : Progressive
Bits/(Pixel*Frame) : 0.182
Stream size : 1.14 GiB (91%)
Language : English
Default : Yes
Forced : No
Color range : Limited
Color primaries : BT.709
Transfer characteristics : BT.709
Matrix coefficients : BT.709

Audio
ID : 2
Format : AC-3
Format/Info : Audio Coding 3
Mode extension : CM (complete main)
Format settings, Endianness : Big
Codec ID : A_AC3
Duration : 40 min 36 s
Bit rate mode : Constant
Bit rate : 384 kb/s
Channel(s) : 6 channels
Channel positions : Front: L C R, Side: L R, LFE
Sampling rate : 48.0 kHz
Frame rate : 31.250 FPS (1536 spf)
Compression mode : Lossy
Stream size : 112 MiB (9%)
Language : English
Default : Yes
Forced : No





General
Unique ID : 191469380277584013705954284560025524793 (0x900BA94A5DB88A5FB1EA2283EF7A1A39)
Complete name : A:\The.Expanse.S02E03.1080p.WEB-DL.mkv
Format : Matroska
Format version : Version 4 / Version 2
File size : 1.57 GiB
Duration : 40 min 36 s
Overall bit rate : 5 542 kb/s
Movie name : Static
Encoded date : UTC 2017-02-09 08:49:47
Writing application : mkvmerge v8.3.0 ('Over the Horizon') 64bit
Writing library : libebml v1.3.1 + libmatroska v1.4.2

Video
ID : 1
Format : AVC
Format/Info : Advanced Video Codec
Format profile : High@L4
Format settings, CABAC : Yes
Format settings, ReFrames : 4 frames
Codec ID : V_MPEG4/ISO/AVC
Duration : 40 min 36 s
Bit rate : 5 156 kb/s
Width : 1 920 pixels
Height : 1 080 pixels
Display aspect ratio : 16:9
Frame rate mode : Constant
Frame rate : 23.976 (23976/1000) FPS
Color space : YUV
Chroma subsampling : 4:2:0
Bit depth : 8 bits
Scan type : Progressive
Bits/(Pixel*Frame) : 0.104
Stream size : 1.46 GiB (93%)
Language : English
Default : Yes
Forced : No
Color range : Limited
Color primaries : BT.709
Transfer characteristics : BT.709
Matrix coefficients : BT.709

Audio
ID : 2
Format : AC-3
Format/Info : Audio Coding 3
Mode extension : CM (complete main)
Format settings, Endianness : Big
Codec ID : A_AC3
Duration : 40 min 36 s
Bit rate mode : Constant
Bit rate : 384 kb/s
Channel(s) : 6 channels
Channel positions : Front: L C R, Side: L R, LFE
Sampling rate : 48.0 kHz
Frame rate : 31.250 FPS (1536 spf)
Compression mode : Lossy
Stream size : 112 MiB (7%)
Language : English
Default : Yes
Forced : No




Screenshots HDRip

The Expanse S02E03 (2017)

The Expanse S02E03 (2017)

The Expanse S02E03 (2017)


Screenshots WEB-DL 720p

The Expanse S02E03 (2017)

The Expanse S02E03 (2017)

The Expanse S02E03 (2017)


Screenshots WEB-DL 1080p

The Expanse S02E03 (2017)

The Expanse S02E03 (2017)

The Expanse S02E03 (2017)