Tags
Language
Tags

Movies4Men - The Fall of France (2001)

Posted By: notbanned
SD / DVDRip IMDb
Movies4Men - The Fall of France (2001)

Movies4Men - The Fall of France (2001)
PDTV | 720x540 | .MKV/AVC @ 1243 Kbps | 55 min 56 s | 524 MiB
Audio: English AAC 64 kbps, 2 channels | Subs: None
Genre: Documentary

Explores the stage of World War Two in which the Germans defeated France in a blitzkrieg invasion.

General
Unique ID : 273686251145860344582872578104704883315 (0xCDE60DFD351E883F2E39CDCC7A0FDA73)
Complete name : The.Fall.of.France.PDTV.mkv
Format : Matroska
Format version : Version 4 / Version 2
File size : 524 MiB
Duration : 55 min 56 s
Overall bit rate : 1 309 kb/s

Video
ID : 1
Format : AVC
Format/Info : Advanced Video Codec
Format profile : Main@L3.1
Format settings, CABAC : Yes
Format settings, ReFrames : 4 frames
Codec ID : V_MPEG4/ISO/AVC
Duration : 55 min 56 s
Bit rate : 1 243 kb/s
Width : 720 pixels
Height : 540 pixels
Display aspect ratio : 4:3
Frame rate mode : Constant
Frame rate : 25.000 FPS
Color space : YUV
Chroma subsampling : 4:2:0
Bit depth : 8 bits
Scan type : Progressive
Bits/(Pixel*Frame) : 0.128
Stream size : 498 MiB (95%)
Writing library : x264 core 157 r2935 545de2f
Encoding settings : cabac=1 / ref=4 / deblock=1:0:0 / analyse=0x1:0x111 / me=umh / subme=9 / psy=1 / psy_rd=1.00:0.00 / mixed_ref=1 / me_range=16 / chroma_me=1 / trellis=1 / 8x8dct=0 / cqm=0 / deadzone=21,11 / fast_pskip=0 / chroma_qp_offset=-2 / threads=17 / lookahead_threads=1 / sliced_threads=0 / nr=0 / decimate=1 / interlaced=0 / bluray_compat=0 / constrained_intra=0 / bframes=6 / b_pyramid=2 / b_adapt=2 / b_bias=0 / direct=1 / weightb=1 / open_gop=0 / weightp=2 / keyint=250 / keyint_min=25 / scenecut=40 / intra_refresh=0 / rc_lookahead=40 / rc=crf / mbtree=1 / crf=23.0 / qcomp=0.60 / qpmin=0 / qpmax=69 / qpstep=4 / ip_ratio=1.40 / aq=1:1.00
Language : English
Default : Yes
Forced : No

Audio
ID : 2
Format : AAC
Format/Info : Advanced Audio Codec
Format profile : HE-AAC / LC
Codec ID : A_AAC
Duration : 55 min 56 s
Bit rate : 64.0 kb/s
Channel(s) : 2 channels
Channel positions : Front: L R
Sampling rate : 48.0 kHz / 24.0 kHz
Frame rate : 23.438 FPS (1024 spf)
Compression mode : Lossy
Delay relative to video : 43 ms
Stream size : 25.6 MiB (5%)
Language : English
Default : Yes
Forced : No


Screenshots:

Movies4Men - The Fall of France (2001)

Movies4Men - The Fall 			  		  		  	 			   			     		   	  	 			   		  	   		 		   	 			   		  		  		 	 				 of France (2001)

Movies4Men - The Fall of France (2001)

Movies4Men - The Fall of France (2001)