Tags
Language
Tags

BBC - The Frankincense Trail (2009)

Posted By: Tutorial
BBC - The Frankincense Trail (2009)

BBC - The Frankincense Trail (2009)
HDTV | 1280 x 720 | .MKV/AVC @ 4000 Kbps | 4x~58mn | 6.85 GB
Audio: English AC-3 192 Kbps, 2 channels | Subs: English
Genre: Documentary, Culture, History

Series in which intrepid presenter Kate Humble follows the ancient frankincense trade route of Arabia across the amazing modern world of the Middle East. Kate's journey along the 2,000-mile trail that first connected the Arab world with the West takes her on a quest that's steeped in history, searing with desert heat, and full of characters and adventure. For 3,000 years before the birth of Christ, frankincense was more valuable than gold. Its sweet smelling aromatic smoke was treasured by Pharaohs and Caesars, and their insatiable demand for frankincense created a trade route from the southern coast of Oman to the Holy Lands. Vast camel caravans carried thousands of tonnes of frankincense over tribal lands - known today as Oman, Yemen, Saudi Arabia, Jordan, Egypt, Israel and Palestine. Following the trail across these seven nations, Kate finds modernity coexisting with ancient traditions as she discovers what it means to be a Western woman in Arabia.
Part 1: Oman ,Yemen and Saudi Arabia
Kate begins her epic journey following high in the hills of southern Oman. With her own supply of the precious resin, she walks with the Al Mahri tribe - the descendants of the ancient traders - and their 300 camels along the original trail through the scorching Empty Quarter desert. Crossing into Yemen, Kate arrives at the world's first skyscraper city, where her frankincense is used at the ritual blessing of a newborn baby. From the modern frankincense trade capital of Aden to an incredible camel-jumping contest, Kate journeys north and enters the mysterious Kingdom of Saudi Arabia.

Part 2: Saudi Arabia
Kate Humble follows the path of the ancient frankincense trade route through one of the most enigmatic nations on Earth - the Kingdom of Saudi Arabia.
With unprecedented access, Kate enters the world of the nation's richest man, meets a remote mountain tribe whose ancestors once guarded the trade routes and who live at the fringe of Saudi society today, and discovers the treasures of an untouched shipwreck that once carried frankincense on the crystal-clear waters of the Red Sea. Travelling by camel, glider and boat, she traces the 1,000-mile trail through the Kingdom and discovers the modern nation and its people.

Part 3: Egypt
Kate Humble crosses the Red Sea from Saudi Arabia to Egypt following the frankincense trail of the Pharaohs. Travelling the length of the Nile, Kate enters Karnack, the world's largest religious site. She looks at the mummy of the once beautiful Queen of the Pharaohs, reveals the death rituals of the Pharaohs in the vast tomb of the Pyramids of Giza, jostles with thousands of ecstatic Christians, and in an extraordinary ceremony in the Sinai desert is cleansed of evil spirits.

Part 4: Jordan and Israel
In this final episode, Kate Humble concludes her remarkable frankincense trail from Oman, across seven nations to Jordan, and on to Israel and the Palestinian Territories. She reveals the secrets behind the ancient Jordanian stone city of Petra, flies with a daredevil female pilot over the Sinai desert, travels to the sacred city Jerusalem, and finds out why a small plot of land is the most contested site in the world. Kate ends her extraordinary journey following in the footsteps of the Three Wise Men to Bethlehem.

Related Documentaries:
BBC - Dan Cruickshank's Adventures in Architecture (2008)
BBC - Dan Cruickshank's Adventures in Architecture (2008)
BBC - Around the World in 80 Treasures (2005)
IMAX - Arabia: A Story of the Golden Ages (2011)
Smithsonian Channel - Sacred Sites: Petra (2016)

General
Unique ID : 236564349545777972078762370158890286534 (0xB1F8A2EECFAD2D5981747DADE4FB7DC6)
Complete name : BBC.The.Frankincense.Trail.1of4.mkv
Format : Matroska
Format version : Version 2
File size : 1.72 GiB
Duration : 58 min 50 s
Overall bit rate : 4 193 kb/s
Encoded date : UTC 2011-03-29 17:19:24
Writing application : mkvmerge v4.6.0 ('Still Crazy After All These Years') built on Mar 10 2011 02:50:32
Writing library : libebml v1.2.0 + libmatroska v1.1.0

Video
ID : 1
Format : AVC
Format/Info : Advanced Video Codec
Format profile : High@L4.1
Format settings, CABAC : Yes
Format settings, ReFrames : 4 frames
Codec ID : V_MPEG4/ISO/AVC
Duration : 58 min 50 s
Bit rate : 4 000 kb/s
Width : 1 280 pixels
Height : 720 pixels
Display aspect ratio : 16:9
Frame rate mode : Constant
Frame rate : 25.000 FPS
Color space : YUV
Chroma subsampling : 4:2:0
Bit depth : 8 bits
Scan type : Progressive
Bits/(Pixel*Frame) : 0.174
Stream size : 1.61 GiB (93%)
Writing library : x264 core 114 r1913 5fd3dce
Encoding settings : cabac=1 / ref=4 / deblock=1:0:0 / analyse=0x3:0x113 / me=umh / subme=9 / psy=1 / psy_rd=1.00:0.00 / mixed_ref=1 / me_range=24 / chroma_me=1 / trellis=1 / 8x8dct=1 / cqm=0 / deadzone=21,11 / fast_pskip=0 / chroma_qp_offset=-2 / threads=3 / sliced_threads=0 / nr=0 / decimate=1 / interlaced=0 / constrained_intra=0 / bframes=3 / b_pyramid=2 / b_adapt=1 / b_bias=0 / direct=1 / weightb=1 / open_gop=0 / weightp=2 / keyint=125 / keyint_min=25 / scenecut=40 / intra_refresh=0 / rc_lookahead=40 / rc=2pass / mbtree=1 / bitrate=4000 / ratetol=1.0 / qcomp=0.60 / qpmin=0 / qpmax=69 / qpstep=4 / cplxblur=20.0 / qblur=0.5 / ip_ratio=1.40 / aq=1:1.00
Language : English
Default : Yes
Forced : No

Audio
ID : 2
Format : AC-3
Format/Info : Audio Coding 3
Format settings, Endianness : Big
Codec ID : A_AC3
Duration : 58 min 50 s
Bit rate mode : Constant
Bit rate : 192 kb/s
Channel(s) : 2 channels
Channel positions : Front: L R
Sampling rate : 48.0 kHz
Frame rate : 31.250 FPS (1536 spf)
Bit depth : 16 bits
Compression mode : Lossy
Delay relative to video : 16 ms
Stream size : 80.8 MiB (5%)
Language : English
Service kind : Complete Main
Default : Yes
Forced : No

Text
ID : 3
Format : UTF-8
Codec ID : S_TEXT/UTF8
Codec ID/Info : UTF-8 Plain Text
Language : English
Default : No
Forced : No
Screenshots

BBC - The Frankincense Trail (2009)

BBC - The Frankincense Trail (2009)

BBC - The Frankincense Trail (2009)

Welcome to my blog - daily update!