Tags
Language
Tags

Boritt Films - The Gettysburg Story (2015)

Posted By: Tutorial
Boritt Films - The Gettysburg Story (2015)

Boritt Films - The Gettysburg Story (2015)
HDTV | 1920 x 1080 | .MP4/AVC @ 3600 Kbps | 59 min 43 s | 1.55 GB
Audio: English AAC 160 Kbps, 2 channels | Subs: English
Genre: Documentary

'The Gettysburg Story' tells the history of the greatest battle fought in the Western Hemisphere. Dramatic stories of characters that experienced the battle first-hand come alive through dynamic, innovative imagery that captures the historic battleground as you have never seen it before.

General
Complete name : The.Gettysburg.Story.mp4
Format : MPEG-4
Format profile : Base Media
Codec ID : isom (isom)
File size : 1.55 GiB
Duration : 59 min 43 s
Overall bit rate mode : Variable
Overall bit rate : 3 705 kb/s
Encoded date : UTC 2017-08-05 16:48:54
Tagged date : UTC 2017-08-05 16:48:54
Writing application : My MP4Box GUI 0.6.0.6

Video
ID : 1
Format : AVC
Format/Info : Advanced Video Codec
Format profile : High@L4.1
Format settings, CABAC : Yes
Format settings, ReFrames : 4 frames
Codec ID : avc1
Codec ID/Info : Advanced Video Coding
Duration : 59 min 43 s
Bit rate : 3 600 kb/s
Maximum bit rate : 39.9 Mb/s
Width : 1 920 pixels
Height : 1 080 pixels
Display aspect ratio : 16:9
Frame rate mode : Variable
Frame rate : 23.976 (23976/1000) FPS
Minimum frame rate : 11.401 FPS
Maximum frame rate : 23.981 FPS
Color space : YUV
Chroma subsampling : 4:2:0
Bit depth : 8 bits
Scan type : Progressive
Bits/(Pixel*Frame) : 0.072
Stream size : 1.48 GiB (96%)
Title : The.Gettysburg.Story.1080p.HDTV.x264.AAC
Writing library : x264 core 130 r2273 b3065e6
Encoding settings : cabac=1 / ref=1 / deblock=1:0:0 / analyse=0x3:0x3 / me=dia / subme=1 / psy=1 / psy_rd=1.00:0.00 / mixed_ref=0 / me_range=16 / chroma_me=1 / trellis=0 / 8x8dct=1 / cqm=0 / deadzone=21,11 / fast_pskip=1 / chroma_qp_offset=0 / threads=6 / lookahead_threads=1 / sliced_threads=0 / nr=0 / decimate=1 / interlaced=0 / bluray_compat=0 / constrained_intra=0 / bframes=3 / b_pyramid=2 / b_adapt=1 / b_bias=0 / direct=1 / weightb=1 / open_gop=0 / weightp=1 / keyint=240 / keyint_min=24 / scenecut=40 / intra_refresh=0 / rc_lookahead=0 / rc=abr / mbtree=0 / bitrate=3600 / ratetol=1.0 / qcomp=0.60 / qpmin=0 / qpmax=69 / qpstep=4 / vbv_maxrate=62500 / vbv_bufsize=78125 / nal_hrd=none / ip_ratio=1.40 / pb_ratio=1.30 / aq=1:1.00
Encoded date : UTC 2017-08-05 14:27:25
Tagged date : UTC 2017-08-05 16:49:47
Color range : Limited
Color primaries : BT.709
Transfer characteristics : BT.709
Matrix coefficients : BT.709

Audio
ID : 2
Format : AAC
Format/Info : Advanced Audio Codec
Format profile : LC
Codec ID : 40
Duration : 59 min 43 s
Bit rate mode : Variable
Bit rate : 160 kb/s
Maximum bit rate : 294 kb/s
Channel(s) : 2 channels
Channel positions : Front: L R
Sampling rate : 44.1 kHz
Frame rate : 43.066 FPS (1024 spf)
Compression mode : Lossy
Stream size : 68.2 MiB (4%)
Title : The.Gettysburg.Story.1080p.HDTV.x264.AAC
Encoded date : UTC 2017-08-05 16:49:42
Tagged date : UTC 2017-08-05 16:49:47

Text
ID : 3
Format : Timed Text
Codec ID : tx3g
Duration : 55 min 35 s
Bit rate mode : Variable
Bit rate : 81 b/s
Stream size : 33.1 KiB (0%)
Title : The.Gettysburg.Story.1080p.HDTV.x264.AAC
Forced : No
Encoded date : UTC 2017-08-05 16:49:47
Tagged date : UTC 2017-08-05 16:49:47
Screenshots

Boritt Films - The Gettysburg Story (2015)

Boritt Films - The Gettysburg Story (2015)

Boritt Films - The Gettysburg Story (2015)

Welcome to my blog - daily update!

Boritt Films - The Gettysburg Story (2015)