Tags
Language
Tags

The Glass Castle (2017)

Posted By: JohnSmith
The Glass Castle (2017)

The Glass Castle (2017)
BDRip | MKV / AVC@430 kb/s | 720x300 | 2h 6mn | 490 MB
English: AAC, 110 kb/s (2 ch) | Subtitles: English
BRRip | AVI / XviD@1103 kb/s | 720x300 | 2h 6mn | 1.38 GB | English: AC3, 448 kb/s (6 ch)
BRRip 720p | AVI / XviD@2386 kb/s | 1280x534 | 2h 6mn | 2.69 GB | English: AC3, 640 kb/s (6 ch)
BDRip 1080p | MKV / AVC@7464 kb/s | 1920x800 | 2h 6mn | 10.2 GB
English: TRUEHD, 2865 kb/s (8 ch) / AC3, 640 kb/s (6 ch) | Subtitles: English
Genre: Biography | Drama

A young girl comes of age in a dysfunctional family of nonconformist nomads with a mother who's an eccentric artist and an alcoholic father who would stir the children's imagination with hope as a distraction to their poverty.




General
Unique ID : 0 (0x0)
Complete name : D:\Downloads\The.Glass.Castle.2017.BDRip.X264-AMIABLE[rarbg]\The.Glass.Castle.2017.BDRip.X264-AMIABLE.mkv
Format : Matroska
Format version : Version 4 / Version 2
File size : 491 MiB
Duration : 2 h 6 min
Overall bit rate : 541 kb/s
Encoded date : UTC 2010-02-22 21:41:29
Writing application : no_variable_data
Writing library : no_variable_data

Video
ID : 1
Format : AVC
Format/Info : Advanced Video Codec
Format profile : High@L3.1
Format settings, CABAC : Yes
Format settings, ReFrames : 5 frames
Codec ID : V_MPEG4/ISO/AVC
Duration : 2 h 6 min
Width : 720 pixels
Height : 300 pixels
Display aspect ratio : 2.40:1
Frame rate mode : Constant
Frame rate : 23.976 (24000/1001) FPS
Color space : YUV
Chroma subsampling : 4:2:0
Bit depth : 8 bits
Scan type : Progressive
Writing library : x264 core 152 r2851 ba24899
Encoding settings : cabac=1 / ref=5 / deblock=1:-2:-2 / analyse=0x3:0x113 / me=umh / subme=8 / psy=1 / psy_rd=1.00:0.00 / mixed_ref=1 / me_range=16 / chroma_me=1 / trellis=2 / 8x8dct=1 / cqm=0 / deadzone=21,11 / fast_pskip=1 / chroma_qp_offset=-2 / threads=9 / lookahead_threads=1 / sliced_threads=0 / nr=0 / decimate=1 / interlaced=0 / bluray_compat=0 / constrained_intra=0 / bframes=3 / b_pyramid=2 / b_adapt=1 / b_bias=0 / direct=3 / weightb=1 / open_gop=0 / weightp=2 / keyint=240 / keyint_min=24 / scenecut=40 / intra_refresh=0 / rc_lookahead=50 / rc=crf / mbtree=1 / crf=19.0 / qcomp=0.60 / qpmin=0 / qpmax=69 / qpstep=4 / ip_ratio=1.40 / aq=1:0.70
Default : Yes
Forced : No
Color range : Limited
Matrix coefficients : BT.709
Statistics Tags Issue : no_variable_data 1970-01-01 00:00:00 / no_variable_data 2010-02-22 21:41:29
FromStats_BitRate : 428065
FromStats_Duration : 02:06:56.651000000
FromStats_FrameCount : 182617
FromStats_StreamSize : 407553529

Audio
ID : 2
Format : AAC
Format/Info : Advanced Audio Codec
Format profile : LC
Codec ID : A_AAC
Duration : 2 h 6 min
Channel(s) : 2 channels
Channel positions : Front: L R
Sampling rate : 48.0 kHz
Frame rate : 46.875 FPS (1024 spf)
Compression mode : Lossy
Delay relative to video : 9 ms
Language : English
Default : Yes
Forced : No
Statistics Tags Issue : no_variable_data 1970-01-01 00:00:00 / no_variable_data 2010-02-22 21:41:29
FromStats_BitRate : 110202
FromStats_Duration : 02:06:56.683000000
FromStats_FrameCount : 357032
FromStats_StreamSize : 104922084

Text #1
ID : 3
Format : UTF-8
Codec ID : S_TEXT/UTF8
Codec ID/Info : UTF-8 Plain Text
Language : English
Default : No
Forced : No
Statistics Tags Issue : no_variable_data 1970-01-01 00:00:00 / no_variable_data 2010-02-22 21:41:29
FromStats_BitRate : 61
FromStats_Duration : 02:01:23.109000000
FromStats_FrameCount : 1640
FromStats_StreamSize : 56387

Text #2
ID : 4
Format : UTF-8
Codec ID : S_TEXT/UTF8
Codec ID/Info : UTF-8 Plain Text
Title : SDH
Language : English
Default : No
Forced : No
Statistics Tags Issue : no_variable_data 1970-01-01 00:00:00 / no_variable_data 2010-02-22 21:41:29
FromStats_BitRate : 68
FromStats_Duration : 02:01:42.170000000
FromStats_FrameCount : 1793
FromStats_StreamSize : 62197

Menu
00:00:00.000 : en:00:00:00.000
00:08:15.453 : en:00:08:15.453
00:15:33.182 : en:00:15:33.182
00:21:33.292 : en:00:21:33.292
00:29:25.931 : en:00:29:25.931
00:37:11.187 : en:00:37:11.187
00:43:54.840 : en:00:43:54.840
00:51:53.485 : en:00:51:53.485
01:00:29.334 : en:01:00:29.334
01:07:59.659 : en:01:07:59.659
01:14:05.816 : en:01:14:05.816
01:24:52.504 : en:01:24:52.504
01:29:27.696 : en:01:29:27.696
01:37:47.236 : en:01:37:47.236
01:45:53.263 : en:01:45:53.263
01:55:49.484 : en:01:55:49.484





General
Complete name : D:\Downloads\The.Glass.Castle.2017.BRRip.XviD.AC3-RARBG\The.Glass.Castle.2017.BRRip.XviD.AC3-RARBG.avi
Format : AVI
Format/Info : Audio Video Interleave
File size : 1.38 GiB
Duration : 2 h 6 min
Overall bit rate : 1 560 kb/s
Movie name : RARBG - The.Glass.Castle.2017.BRRip.XviD.AC3-RARBG
Writing application : Lavf57.71.100
Writing library : VirtualDub build 35491/release
Comment : RARBG - The.Glass.Castle.2017.BRRip.XviD.AC3-RARBG

Video
ID : 0
Format : MPEG-4 Visual
Format profile : Simple@L5
Format settings, BVOP : No
Format settings, QPel : No
Format settings, GMC : No warppoints
Format settings, Matrix : Default (H.263)
Codec ID : XVID
Codec ID/Hint : XviD
Duration : 2 h 6 min
Bit rate : 1 103 kb/s
Width : 720 pixels
Height : 300 pixels
Display aspect ratio : 2.40:1
Frame rate : 23.976 (24000/1001) FPS
Color space : YUV
Chroma subsampling : 4:2:0
Bit depth : 8 bits
Scan type : Progressive
Compression mode : Lossy
Bits/(Pixel*Frame) : 0.213
Stream size : 1 001 MiB (71%)
Writing library : Lavc57.89.100

Audio
ID : 1
Format : AC-3
Format/Info : Audio Coding 3
Format settings, Endianness : Big
Codec ID : 2000
Duration : 2 h 6 min
Bit rate mode : Constant
Bit rate : 448 kb/s
Channel(s) : 6 channels
Channel positions : Front: L C R, Side: L R, LFE
Sampling rate : 48.0 kHz
Frame rate : 31.250 FPS (1536 spf)
Bit depth : 16 bits
Compression mode : Lossy
Stream size : 407 MiB (29%)
Alignment : Aligned on interleaves
Interleave, duration : 42 ms (1.00 video frame)
Interleave, preload duratio : 512 ms
Service kind : Complete Main





General
Complete name : D:\Downloads\The.Glass.Castle.2017.720p.BRRip.XviD.AC3-RARBG\The.Glass.Castle.2017.720p.BRRip.XviD.AC3-RARBG.avi
Format : AVI
Format/Info : Audio Video Interleave
Format profile : OpenDML
File size : 2.69 GiB
Duration : 2 h 6 min
Overall bit rate : 3 037 kb/s
Movie name : RARBG - The.Glass.Castle.2017.720p.BRRip.XviD.AC3-RARBG
Writing application : Lavf57.71.100
Writing library : VirtualDub build 35491/release
Comment : RARBG - The.Glass.Castle.2017.720p.BRRip.XviD.AC3-RARBG

Video
ID : 0
Format : MPEG-4 Visual
Format profile : Simple@L5
Format settings, BVOP : No
Format settings, QPel : No
Format settings, GMC : No warppoints
Format settings, Matrix : Default (H.263)
Codec ID : XVID
Codec ID/Hint : XviD
Duration : 2 h 6 min
Bit rate : 2 386 kb/s
Width : 1 280 pixels
Height : 534 pixels
Display aspect ratio : 2.40:1
Frame rate : 23.976 (24000/1001) FPS
Color space : YUV
Chroma subsampling : 4:2:0
Bit depth : 8 bits
Scan type : Progressive
Compression mode : Lossy
Bits/(Pixel*Frame) : 0.146
Stream size : 2.12 GiB (79%)
Writing library : Lavc57.89.100

Audio
ID : 1
Format : AC-3
Format/Info : Audio Coding 3
Format settings, Endianness : Big
Codec ID : 2000
Duration : 2 h 6 min
Bit rate mode : Constant
Bit rate : 640 kb/s
Channel(s) : 6 channels
Channel positions : Front: L C R, Side: L R, LFE
Sampling rate : 48.0 kHz
Frame rate : 31.250 FPS (1536 spf)
Bit depth : 16 bits
Compression mode : Lossy
Stream size : 581 MiB (21%)
Alignment : Aligned on interleaves
Interleave, duration : 42 ms (1.00 video frame)
Interleave, preload duratio : 512 ms
Service kind : Complete Main





General
Unique ID : 189538427984475072080482376659831073808 (0x8E97C5FDFBE8034389FD7561586BAC10)
Complete name : D:\Downloads\The.Glass.Castle.2017.1080p.BluRay.x264.TrueHD.7.1-HDChina\The.Glass.Castle.2017.1080p.BluRay.x264.TrueHD.7.1-HDChina.mkv
Format : Matroska
Format version : Version 4 / Version 2
File size : 10.2 GiB
Duration : 2 h 6 min
Overall bit rate mode : Variable
Overall bit rate : 11.5 Mb/s
Encoded date : UTC 2017-10-27 00:25:21
Writing application : mkvmerge v16.0.0 ('Protest') 64-bit
Writing library : libebml v1.3.5 + libmatroska v1.4.8

Video
ID : 1
Format : AVC
Format/Info : Advanced Video Codec
Format profile : High@L4.1
Format settings, CABAC : Yes
Format settings, ReFrames : 5 frames
Codec ID : V_MPEG4/ISO/AVC
Duration : 2 h 6 min
Bit rate : 7 464 kb/s
Width : 1 920 pixels
Height : 800 pixels
Display aspect ratio : 2.40:1
Frame rate mode : Constant
Frame rate : 23.976 (24000/1001) FPS
Color space : YUV
Chroma subsampling : 4:2:0
Bit depth : 8 bits
Scan type : Progressive
Bits/(Pixel*Frame) : 0.203
Stream size : 6.62 GiB (65%)
Title : Avisynth @ HDChina
Writing library : x264 core 151 r2836+45 cabfa1f 7mod [8-bit@all X86_64]
Encoding settings : cabac=1 / ref=5 / deblock=1:-3:-3 / analyse=0x3:0x133 / me=tesa / subme=11 / psy=1 / fade_compensate=0.00 / psy_rd=0.90:0.00 / mixed_ref=1 / me_range=32 / chroma_me=1 / trellis=2 / 8x8dct=1 / cqm=0 / deadzone=21,11 / fast_pskip=0 / chroma_qp_offset=-2 / threads=16 / lookahead_threads=4 / sliced_threads=0 / nr=0 / decimate=0 / interlaced=0 / bluray_compat=0 / constrained_intra=0 / fgo=0 / bframes=10 / b_pyramid=2 / b_adapt=2 / b_bias=0 / direct=3 / weightb=1 / open_gop=0 / weightp=2 / keyint=240 / keyint_min=24 / scenecut=40 / intra_refresh=0 / rc=crf / mbtree=0 / crf=16.8000 / qcomp=0.60 / qpmin=0:0:0 / qpmax=69:69:69 / qpstep=4 / ip_ratio=1.40 / pb_ratio=1.30 / aq=4:0.90 / aq-sensitivity=10.00 / aq-factor=1.00:1.00:1.00 / aq2=0 / aq3=0
Language : English
Default : Yes
Forced : No
Color range : Limited
Matrix coefficients : BT.709

Audio #1
ID : 2
Format : TrueHD
Codec ID : A_TRUEHD
Duration : 2 h 6 min
Bit rate mode : Variable
Bit rate : 2 865 kb/s
Maximum bit rate : 4 608 kb/s
Channel(s) : 8 channels
Channel positions : Front: L C R, Side: L R, Back: L R, LFE
Sampling rate : 48.0 kHz
Frame rate : 1 200.000 FPS (40 spf)
Compression mode : Lossless
Stream size : 2.54 GiB (25%)
Language : English
Default : Yes
Forced : No

Audio #2
ID : 3
Format : AC-3
Format/Info : Audio Coding 3
Format settings, Endianness : Big
Codec ID : A_AC3
Duration : 2 h 6 min
Bit rate mode : Constant
Bit rate : 640 kb/s
Channel(s) : 6 channels
Channel positions : Front: L C R, Side: L R, LFE
Sampling rate : 48.0 kHz
Frame rate : 31.250 FPS (1536 spf)
Bit depth : 16 bits
Compression mode : Lossy
Stream size : 581 MiB (6%)
Language : English
Service kind : Complete Main
Default : No
Forced : No

Audio #3
ID : 4
Format : AC-3
Format/Info : Audio Coding 3
Format settings, Endianness : Big
Codec ID : A_AC3
Duration : 2 h 6 min
Bit rate mode : Constant
Bit rate : 448 kb/s
Channel(s) : 6 channels
Channel positions : Front: L C R, Side: L R, LFE
Sampling rate : 48.0 kHz
Frame rate : 31.250 FPS (1536 spf)
Bit depth : 16 bits
Compression mode : Lossy
Stream size : 407 MiB (4%)
Language : Spanish
Service kind : Complete Main
Default : No
Forced : No

Text
ID : 5
Format : PGS
Muxing mode : zlib
Codec ID : S_HDMV/PGS
Codec ID/Info : Picture based subtitle format used on BDs/HD-DVDs
Duration : 2 h 1 min
Bit rate : 47.4 kb/s
Count of elements : 3594
Stream size : 41.2 MiB (0%)
Language : English
Default : Yes
Forced : No

Menu
00:00:00.000 : en:Chapter 01
00:08:15.452 : en:Chapter 02
00:15:33.182 : en:Chapter 03
00:21:33.290 : en:Chapter 04
00:29:25.930 : en:Chapter 05
00:37:11.186 : en:Chapter 06
00:43:54.840 : en:Chapter 07
00:51:53.485 : en:Chapter 08
01:00:29.333 : en:Chapter 09
01:07:59.657 : en:Chapter 10
01:14:05.815 : en:Chapter 11
01:24:52.502 : en:Chapter 12
01:29:27.694 : en:Chapter 13
01:37:47.235 : en:Chapter 14
01:45:53.262 : en:Chapter 15
01:55:49.484 : en:Chapter 16
02:06:56.399 : en:Chapter 17




Screenshots BDRip

The Glass Castle (2017)

The Glass Castle (2017)

The Glass Castle (2017)


Screenshots BRRip

The Glass Castle (2017)

The Glass Castle (2017)

The Glass Castle (2017)


Screenshots BRRip 720p

The Glass Castle (2017)

The Glass Castle (2017)

The Glass Castle (2017)


Screenshots BDRip 1080p

The Glass Castle (2017)

The Glass Castle (2017)

The Glass Castle (2017)