Tags
Language
Tags

The Glass Castle (2017)

Posted By: JohnSmith
The Glass Castle (2017)

The Glass Castle (2017)
HDRip | MKV / AVC@1256 kb/s | 720x304 | 2h 7mn | 1.46 GB | English: AC3, 384 kb/s (6 ch)
WEB-DL 720p | MKV / AVC@4074 kb/s | 1280x530 | 2h 7mn | 3.96 GB | English: AC3, 384 kb/s (6 ch)
WEB-DL 1080p | MKV / AVC@4537 kb/s | 1920x796 | 2h 7mn | 4.38 GB | English: AC3, 384 kb/s (6 ch)
WEB-DL 1080p | MKV / AVC@4220 kb/s | 1920x800 | 2h 6mn | 4.31 GB
English: AC3, 640 kb/s (6 ch) | Subtitles: English
Genre: Biography | Drama

A young girl comes of age in a dysfunctional family of nonconformist nomads with a mother who's an eccentric artist and an alcoholic father who would stir the children's imagination with hope as a distraction to their poverty.




General
Unique ID : 226829980186359797041522328598163602666 (0xAAA5DD7804683A3D9C22809FF3B5BCEA)
Complete name : A:\The.Glass.Castle.2017.HDRip.mkv
Format : Matroska
Format version : Version 4 / Version 2
File size : 1.46 GiB
Duration : 2 h 7 min
Overall bit rate : 1 641 kb/s
Movie name : The Glass Castle
Encoded date : UTC 2017-10-24 06:23:08
Writing application : mkvmerge v8.3.0 ('Over the Horizon') 64bit
Writing library : libebml v1.3.1 + libmatroska v1.4.2

Video
ID : 1
Format : AVC
Format/Info : Advanced Video Codec
Format profile : Baseline@L3.1
Format settings, CABAC : No
Format settings, ReFrames : 1 frame
Codec ID : V_MPEG4/ISO/AVC
Duration : 2 h 7 min
Bit rate : 1 256 kb/s
Width : 720 pixels
Height : 304 pixels
Display aspect ratio : 2.35:1
Frame rate mode : Constant
Frame rate : 23.976 (24000/1001) FPS
Color space : YUV
Chroma subsampling : 4:2:0
Bit depth : 8 bits
Scan type : Progressive
Bits/(Pixel*Frame) : 0.239
Stream size : 1.12 GiB (77%)
Writing library : x264 core 148 r2708 86b7198
Encoding settings : cabac=0 / ref=1 / deblock=1:0:0 / analyse=0x1:0x111 / me=hex / subme=2 / psy=1 / psy_rd=1.00:0.00 / mixed_ref=0 / me_range=16 / chroma_me=1 / trellis=0 / 8x8dct=0 / cqm=0 / deadzone=21,11 / fast_pskip=1 / chroma_qp_offset=0 / threads=9 / lookahead_threads=2 / sliced_threads=0 / nr=0 / decimate=1 / interlaced=0 / bluray_compat=0 / constrained_intra=0 / bframes=0 / weightp=0 / keyint=240 / keyint_min=24 / scenecut=40 / intra_refresh=0 / rc_lookahead=10 / rc=2pass / mbtree=1 / bitrate=1256 / ratetol=1.0 / qcomp=0.60 / qpmin=0 / qpmax=69 / qpstep=4 / cplxblur=20.0 / qblur=0.5 / vbv_maxrate=14000 / vbv_bufsize=14000 / nal_hrd=none / filler=0 / ip_ratio=1.40 / aq=1:1.00
Default : Yes
Forced : No
Color range : Limited
Color primaries : BT.709
Transfer characteristics : BT.709
Matrix coefficients : BT.709

Audio
ID : 2
Format : AC-3
Format/Info : Audio Coding 3
Format settings, Endianness : Big
Codec ID : A_AC3
Duration : 2 h 7 min
Bit rate mode : Constant
Bit rate : 384 kb/s
Channel(s) : 6 channels
Channel positions : Front: L C R, Side: L R, LFE
Sampling rate : 48.0 kHz
Frame rate : 31.250 FPS (1536 spf)
Bit depth : 16 bits
Compression mode : Lossy
Stream size : 349 MiB (23%)
Title : Surround
Language : English
Service kind : Complete Main
Default : Yes
Forced : No





General
Unique ID : 208945198322238532779389348772242120660 (0x9D3161A4A41B1EB5937674253F05DFD4)
Complete name : A:\The.Glass.Castle.2017.720p.WEB-DL.mkv
Format : Matroska
Format version : Version 4 / Version 2
File size : 3.96 GiB
Duration : 2 h 7 min
Overall bit rate : 4 460 kb/s
Encoded date : UTC 2017-10-24 06:15:32
Writing application : mkvmerge v8.3.0 ('Over the Horizon') 64bit
Writing library : libebml v1.3.1 + libmatroska v1.4.2

Video
ID : 1
Format : AVC
Format/Info : Advanced Video Codec
Format profile : Main@L3.1
Format settings, CABAC : No
Format settings, ReFrames : 2 frames
Codec ID : V_MPEG4/ISO/AVC
Duration : 2 h 7 min
Bit rate : 4 074 kb/s
Width : 1 280 pixels
Height : 530 pixels
Display aspect ratio : 2.40:1
Frame rate mode : Constant
Frame rate : 23.976 (23976/1000) FPS
Color space : YUV
Chroma subsampling : 4:2:0
Bit depth : 8 bits
Scan type : Progressive
Bits/(Pixel*Frame) : 0.250
Stream size : 3.62 GiB (91%)
Language : English
Default : Yes
Forced : No
Color range : Limited
Color primaries : BT.709
Transfer characteristics : BT.709
Matrix coefficients : BT.709

Audio
ID : 2
Format : AC-3
Format/Info : Audio Coding 3
Format settings, Endianness : Big
Codec ID : A_AC3
Duration : 2 h 7 min
Bit rate mode : Constant
Bit rate : 384 kb/s
Channel(s) : 6 channels
Channel positions : Front: L C R, Side: L R, LFE
Sampling rate : 48.0 kHz
Frame rate : 31.250 FPS (1536 spf)
Bit depth : 16 bits
Compression mode : Lossy
Stream size : 349 MiB (9%)
Language : English
Service kind : Complete Main
Default : Yes
Forced : No

Menu
00:00:00.000 : en:Chapter 1
00:09:02.542 : en:Chapter 2
00:18:49.837 : en:Chapter 3
00:26:53.111 : en:Chapter 4
00:37:26.202 : en:Chapter 5
00:48:55.849 : en:Chapter 6
00:56:35.558 : en:Chapter 7
01:05:51.363 : en:Chapter 8
01:14:20.830 : en:Chapter 9
01:25:07.518 : en:Chapter 10
01:36:13.559 : en:Chapter 11
01:43:51.516 : en:Chapter 12
01:58:45.284 : en:Chapter 13





General
Unique ID : 232118986101122921219683280216914781225 (0xAEA07D97EA5A9335BD1EAEE7956DE429)
Complete name : A:\The.Glass.Castle.2017.1080p.WEB-DL.mkv
Format : Matroska
Format version : Version 4 / Version 2
File size : 4.38 GiB
Duration : 2 h 7 min
Overall bit rate : 4 923 kb/s
Encoded date : UTC 2017-10-24 06:15:10
Writing application : mkvmerge v8.3.0 ('Over the Horizon') 64bit
Writing library : libebml v1.3.1 + libmatroska v1.4.2

Video
ID : 1
Format : AVC
Format/Info : Advanced Video Codec
Format profile : High@L4
Format settings, CABAC : Yes
Format settings, ReFrames : 5 frames
Codec ID : V_MPEG4/ISO/AVC
Duration : 2 h 7 min
Bit rate : 4 537 kb/s
Width : 1 920 pixels
Height : 796 pixels
Display aspect ratio : 2.40:1
Frame rate mode : Constant
Frame rate : 23.976 (23976/1000) FPS
Color space : YUV
Chroma subsampling : 4:2:0
Bit depth : 8 bits
Scan type : Progressive
Bits/(Pixel*Frame) : 0.124
Stream size : 4.03 GiB (92%)
Language : English
Default : Yes
Forced : No
Color range : Limited
Color primaries : BT.709
Transfer characteristics : BT.709
Matrix coefficients : BT.709

Audio
ID : 2
Format : AC-3
Format/Info : Audio Coding 3
Format settings, Endianness : Big
Codec ID : A_AC3
Duration : 2 h 7 min
Bit rate mode : Constant
Bit rate : 384 kb/s
Channel(s) : 6 channels
Channel positions : Front: L C R, Side: L R, LFE
Sampling rate : 48.0 kHz
Frame rate : 31.250 FPS (1536 spf)
Bit depth : 16 bits
Compression mode : Lossy
Stream size : 349 MiB (8%)
Language : English
Service kind : Complete Main
Default : Yes
Forced : No

Menu
00:00:00.000 : en:Chapter 1
00:09:02.542 : en:Chapter 2
00:18:49.837 : en:Chapter 3
00:26:53.111 : en:Chapter 4
00:37:26.202 : en:Chapter 5
00:48:55.849 : en:Chapter 6
00:56:35.558 : en:Chapter 7
01:05:51.363 : en:Chapter 8
01:14:20.830 : en:Chapter 9
01:25:07.518 : en:Chapter 10
01:36:13.559 : en:Chapter 11
01:43:51.516 : en:Chapter 12
01:58:45.284 : en:Chapter 13





General
Unique ID : 22455067288662118723115679958657915902 (0x10E4B04B5482FC556A4E025DAE9BDBFE)
Complete name : D:\Downloads\The.Glass.Castle.2017.1080p.AMZN.WEB-DL.DD+5.1.H.264-SiGMA.mkv
Format : Matroska
Format version : Version 4 / Version 2
File size : 4.31 GiB
Duration : 2 h 6 min
Overall bit rate mode : Variable
Overall bit rate : 4 862 kb/s
Encoded date : UTC 2017-10-24 08:30:03
Writing application : mkvmerge v17.0.0 ('Be Ur Friend') 64-bit
Writing library : libebml v1.3.5 + libmatroska v1.4.8

Video
ID : 1
Format : AVC
Format/Info : Advanced Video Codec
Format profile : High@L4
Format settings, CABAC : Yes
Format settings, ReFrames : 4 frames
Codec ID : V_MPEG4/ISO/AVC
Duration : 2 h 6 min
Bit rate mode : Variable
Bit rate : 4 220 kb/s
Maximum bit rate : 15.0 Mb/s
Width : 1 920 pixels
Height : 800 pixels
Display aspect ratio : 2.40:1
Frame rate mode : Constant
Frame rate : 23.976 (24000/1001) FPS
Color space : YUV
Chroma subsampling : 4:2:0
Bit depth : 8 bits
Scan type : Progressive
Bits/(Pixel*Frame) : 0.115
Stream size : 3.74 GiB (87%)
Default : Yes
Forced : No
Color range : Limited
Color primaries : BT.709
Transfer characteristics : BT.709
Matrix coefficients : BT.709

Audio
ID : 2
Format : E-AC-3
Format/Info : Enhanced Audio Coding 3
Format settings, Endianness : Big
Codec ID : A_EAC3
Duration : 2 h 6 min
Bit rate mode : Constant
Bit rate : 640 kb/s
Channel(s) : 6 channels
Channel positions : Front: L C R, Side: L R, LFE
Sampling rate : 48.0 kHz
Frame rate : 187.500 FPS (256 spf)
Compression mode : Lossy
Stream size : 581 MiB (13%)
Language : English
Service kind : Complete Main
Default : Yes
Forced : No

Text
ID : 3
Format : UTF-8
Codec ID : S_TEXT/UTF8
Codec ID/Info : UTF-8 Plain Text
Duration : 2 h 1 min
Bit rate : 63 b/s
Count of elements : 1976
Stream size : 56.7 KiB (0%)
Language : English
Default : No
Forced : No




Screenshots HDRip

The Glass Castle (2017)

The Glass Castle (2017)

The Glass Castle (2017)


Screenshots WEB-DL 720p

The Glass Castle (2017)

The Glass Castle (2017)

The Glass Castle (2017)


Screenshots WEB-DL 1080p

The Glass Castle (2017)

The Glass Castle (2017)

The Glass Castle (2017)


Screenshots WEB-DL 1080p Amazon

The Glass Castle (2017)

The Glass Castle (2017)

The Glass Castle (2017)