Tags
Language
Tags

The Good Doctor S01E01-E03 (2017)

Posted By: JohnSmith
1080p (FullHD) / WEB-DL IMDb
The Good Doctor S01E01-E03 (2017)

The Good Doctor S01E01-E03 (2017)
WEB-DL 1080p | MKV / AVC@~9500 kb/s | 1920x1080 | 3x~43mn | 3x~3 GB
English: AC3, 640 kb/s (6 ch) | Subtitles: English
Genre: Drama

Shaun Murphy, a young surgeon with autism and savant syndrome, relocates from a quiet country life to join a prestigious hospital surgical unit. Alone in the world and unable to personally connect with those around him, Shaun uses his extraordinary medical gifts to save lives and challenge the skepticism of his colleagues.




General
Unique ID : 122230462730914926971088880429405896037 (0x5BF4BB179B9E3AADCBBF9CE0A744FD65)
Complete name : D:\Downloads\The.Good.Doctor.S01E01.Burnt.Food.1080p.AMZN.WEBRip.DDP5.1.x264-QOQ[rarbg]\The.Good.Doctor.S01E01.Burnt.Food.1080p.AMZN.WEB-DL.DD+5.1.H.264-QOQ.mkv
Format : Matroska
Format version : Version 4 / Version 2
File size : 3.07 GiB
Duration : 43 min 24 s
Overall bit rate mode : Variable
Overall bit rate : 10.1 Mb/s
Encoded date : UTC 2017-09-27 11:49:12
Writing application : mkvmerge v15.0.0 ('Duel with the Devil') 64-bit
Writing library : libebml v1.3.5 + libmatroska v1.4.5

Video
ID : 1
Format : AVC
Format/Info : Advanced Video Codec
Format profile : High@L4
Format settings, CABAC : Yes
Format settings, ReFrames : 4 frames
Codec ID : V_MPEG4/ISO/AVC
Duration : 43 min 24 s
Bit rate mode : Variable
Bit rate : 9 487 kb/s
Maximum bit rate : 15.0 Mb/s
Width : 1 920 pixels
Height : 1 080 pixels
Display aspect ratio : 16:9
Frame rate mode : Constant
Frame rate : 23.976 (24000/1001) FPS
Color space : YUV
Chroma subsampling : 4:2:0
Bit depth : 8 bits
Scan type : Progressive
Bits/(Pixel*Frame) : 0.191
Stream size : 2.88 GiB (94%)
Default : Yes
Forced : No
Color range : Limited
Color primaries : BT.709
Transfer characteristics : BT.709
Matrix coefficients : BT.709

Audio
ID : 2
Format : E-AC-3
Format/Info : Enhanced Audio Coding 3
Format settings, Endianness : Big
Codec ID : A_EAC3
Duration : 43 min 24 s
Bit rate mode : Constant
Bit rate : 640 kb/s
Channel(s) : 6 channels
Channel positions : Front: L C R, Side: L R, LFE
Sampling rate : 48.0 kHz
Frame rate : 187.500 FPS (256 spf)
Compression mode : Lossy
Stream size : 199 MiB (6%)
Language : English
Service kind : Complete Main
Default : Yes
Forced : No

Text
ID : 3
Format : UTF-8
Codec ID : S_TEXT/UTF8
Codec ID/Info : UTF-8 Plain Text
Duration : 43 min 12 s
Bit rate : 66 b/s
Count of elements : 775
Stream size : 21.0 KiB (0%)
Language : English
Default : No
Forced : No




Screenshots

The Good Doctor S01E01-E03 (2017)

The Good Doctor S01E01-E03 (2017)

The Good Doctor S01E01-E03 (2017)

All episodes