Tags
Language
Tags

The Good Doctor S01E07 (2017)

Posted By: JohnSmith
1080p (FullHD) / WEB-DL IMDb
The Good Doctor S01E07 (2017)

The Good Doctor S01E07 (2017)
WEBRip 720p | MKV / AVC@3360 kb/s | 1280x720 | 42mn | 1.01 GB | English: AAC, 127 kb/s (2 ch)
WEB-DL 1080p | MKV / AVC@5720 kb/s | 1920x1080 | 42mn | 1.90 GB
English: AC3, 640 kb/s (6 ch) | Subtitles: English
Genre: Drama

Shaun Murphy, a young surgeon with autism and savant syndrome, relocates from a quiet country life to join a prestigious hospital surgical unit. Alone in the world and unable to personally connect with those around him, Shaun uses his extraordinary medical gifts to save lives and challenge the skepticism of his colleagues.




General
Unique ID : 199789089576836009934969055501201679817 (0x964DFAA0E8EAED69C23728FFA33BA5C9)
Complete name : D:\Downloads\The.Good.Doctor.S01E07.iNTERNAL.720p.WEB.x264-BAMBOOZLE[rarbg]\the.good.doctor.s01e07.internal.720p.web.x264-bamboozle.mkv
Format : Matroska
Format version : Version 4 / Version 2
File size : 1.01 GiB
Duration : 42 min 35 s
Overall bit rate : 3 412 kb/s
Encoded date : UTC 2017-11-14 10:54:08
Writing application : mkvmerge v8.8.0 ('Wind at my back') 64bit
Writing library : libebml v1.3.3 + libmatroska v1.4.4

Video
ID : 1
Format : AVC
Format/Info : Advanced Video Codec
Format profile : High@L3.1
Format settings, CABAC : Yes
Format settings, ReFrames : 2 frames
Codec ID : V_MPEG4/ISO/AVC
Duration : 42 min 34 s
Bit rate : 3 360 kb/s
Width : 1 280 pixels
Height : 720 pixels
Display aspect ratio : 16:9
Frame rate mode : Constant
Frame rate : 23.976 (24000/1001) FPS
Original frame rate : 24.000 FPS
Color space : YUV
Chroma subsampling : 4:2:0
Bit depth : 8 bits
Scan type : Progressive
Bits/(Pixel*Frame) : 0.152
Stream size : 1 000 MiB (96%)
Writing library : x264 core 148 r2579M 73ae2d1
Encoding settings : cabac=1 / ref=2 / deblock=1:0:0 / analyse=0x3:0x113 / me=hex / subme=2 / psy=1 / psy_rd=1.00:0.00 / mixed_ref=0 / me_range=16 / chroma_me=1 / trellis=0 / 8x8dct=1 / cqm=0 / deadzone=21,11 / fast_pskip=1 / chroma_qp_offset=0 / threads=4 / lookahead_threads=1 / sliced_threads=0 / nr=250 / decimate=1 / interlaced=0 / bluray_compat=0 / stitchable=1 / constrained_intra=0 / bframes=0 / weightp=1 / keyint=250 / keyint_min=24 / scenecut=40 / intra_refresh=0 / rc_lookahead=10 / rc=2pass / mbtree=1 / bitrate=3360 / ratetol=1.0 / qcomp=0.60 / qpmin=5 / qpmax=69 / qpstep=4 / cplxblur=20.0 / qblur=0.5 / ip_ratio=1.40 / aq=1:1.00
Default : Yes
Forced : No

Audio
ID : 2
Format : AAC
Format/Info : Advanced Audio Codec
Format profile : HE-AAC / LC
Codec ID : A_AAC
Duration : 42 min 35 s
Bit rate : 127 kb/s
Channel(s) : 2 channels
Channel positions : Front: L R
Sampling rate : 48.0 kHz / 24.0 kHz
Frame rate : 23.438 FPS (1024 spf)
Compression mode : Lossy
Stream size : 38.6 MiB (4%)
Default : Yes
Forced : No





General
Unique ID : 188595717372045966954218932189124702158 (0x8DE236C53B0EAA6BBA3A7F280A152FCE)
Complete name : D:\Downloads\The.Good.Doctor.S01E07.1080p.WEB.H264-STRiFE[rarbg]\the.good.doctor.s01e07.1080p.web.h264-strife.mkv
Format : Matroska
Format version : Version 4 / Version 2
File size : 1.90 GiB
Duration : 42 min 42 s
Overall bit rate mode : Variable
Overall bit rate : 6 360 kb/s
Encoded date : UTC 2017-11-16 07:51:44
Writing application : mkvmerge v13.0.0 ('The Juggler') 64bit
Writing library : libebml v1.3.4 + libmatroska v1.4.5

Video
ID : 1
Format : AVC
Format/Info : Advanced Video Codec
Format profile : High@L4
Format settings, CABAC : Yes
Format settings, ReFrames : 4 frames
Codec ID : V_MPEG4/ISO/AVC
Duration : 42 min 42 s
Bit rate mode : Variable
Bit rate : 5 718 kb/s
Maximum bit rate : 15.0 Mb/s
Width : 1 920 pixels
Height : 1 080 pixels
Display aspect ratio : 16:9
Frame rate mode : Constant
Frame rate : 23.976 (24000/1001) FPS
Color space : YUV
Chroma subsampling : 4:2:0
Bit depth : 8 bits
Scan type : Progressive
Bits/(Pixel*Frame) : 0.115
Stream size : 1.71 GiB (90%)
Language : English
Default : Yes
Forced : No
Color range : Limited
Color primaries : BT.709
Transfer characteristics : BT.709
Matrix coefficients : BT.709

Audio
ID : 2
Format : E-AC-3
Format/Info : Enhanced Audio Coding 3
Format settings, Endianness : Big
Codec ID : A_EAC3
Duration : 42 min 42 s
Bit rate mode : Constant
Bit rate : 640 kb/s
Channel(s) : 6 channels
Channel positions : Front: L C R, Side: L R, LFE
Sampling rate : 48.0 kHz
Frame rate : 187.500 FPS (256 spf)
Compression mode : Lossy
Stream size : 196 MiB (10%)
Language : English
Service kind : Complete Main
Default : Yes
Forced : No

Text
ID : 3
Format : UTF-8
Codec ID : S_TEXT/UTF8
Codec ID/Info : UTF-8 Plain Text
Duration : 42 min 37 s
Bit rate : 77 b/s
Count of elements : 832
Stream size : 24.1 KiB (0%)
Language : English
Default : No
Forced : No




Screenshots WEBRip 720p

The Good Doctor S01E07 (2017)

The Good Doctor S01E07 (2017)

The Good Doctor S01E07 (2017)


Screenshots WEB-DL 1080p

The Good Doctor S01E07 (2017)

The Good Doctor S01E07 (2017)

The Good Doctor S01E07 (2017)

All episodes